<?xml version="1.0" standalone="no"?>
<!DOCTYPE svg PUBLIC "-//W3C//DTD SVG 1.1//EN" "http://www.w3.org/Graphics/SVG/1.1/DTD/svg11.dtd" >
<svg xmlns="http://www.w3.org/2000/svg">
<metadata>Generated by IcoMoon</metadata>
<defs>
<font id="icomoon" horiz-adv-x="1024">
<font-face units-per-em="1024" ascent="960" descent="-64" />
<missing-glyph horiz-adv-x="1024" />
<glyph unicode="&#x20;" horiz-adv-x="512" d="" />
<glyph unicode="&#xe900;" glyph-name="premium-alert-box" horiz-adv-x="831" d="M812.759 287.911l-54.468 89.043c-12.14 23.258-19.991 50.545-21.759 79.476l-0.028 0.569v137.354c0 0.166 0 0.362 0 0.559 0 135.448-84.608 251.135-203.856 297.094l-2.176 0.737c-22.406 40.371-64.783 67.242-113.436 67.242s-91.030-26.871-113.099-66.582l-0.337-0.66c-121.461-47.061-206.099-162.79-206.505-298.34v-136.932c-1.292-29.652-9.204-57.185-22.283-81.529l0.496 1.011-54.468-89.043c-12.686-19.332-20.235-43.024-20.235-68.479 0-57.045 37.913-105.235 89.915-120.747l0.892-0.228c44.163-15.805 97.498-29.931 152.316-39.786l6.352-0.947c9.087-27.274 23.707-50.598 42.635-69.632l-0.008 0.008c32.139-32.129 76.534-52 125.57-52 78.066 0 144.369 50.365 168.188 120.373l0.37 1.251c60.668 10.593 113.394 24.232 164.413 41.566l-7.639-2.254c37.72 12.573 67.127 41.048 80.7 77.261l0.292 0.889c4.814 13.099 7.599 28.225 7.599 44.002 0 25.432-7.236 49.174-19.762 69.279l0.322-0.555zM416.799 7.045c-29.254 0.106-55.702 12.035-74.83 31.256l-0.004 0.004-8.052 7.105c27.471-2.368 55.415-3.315 82.886-3.315s55.415 0 83.36 3.315c-19.938-23.531-49.511-38.368-82.55-38.368-0.285 0-0.569 0.001-0.854 0.003h0.044zM756.396 199.815c-6.131-16.861-19.404-29.824-36.062-35.404l-0.408-0.118c-90.346-31.523-194.492-49.73-302.89-49.73s-212.544 18.207-309.546 51.731l6.656-2.001c-24.895 5.576-43.221 27.486-43.221 53.677 0 12.445 4.138 23.924 11.113 33.136l-0.1-0.137 54.468 90.938c18.574 33.386 30.14 72.961 31.719 115.091l0.014 0.476v136.881c0.332 111.36 73.814 205.468 174.904 236.821l1.762 0.471 15.156 3.789c18.074 3.86 38.84 6.070 60.122 6.070 13.033 0 25.872-0.829 38.468-2.437l-1.494 0.156 18.472-3.315 17.051-4.263c101.996-32.301 174.651-126.058 174.771-236.804v-137.368c1.843-42.767 13.375-82.457 32.438-117.454l-0.705 1.413 54.468-90.464c4.743-8.164 7.543-17.965 7.543-28.42 0-8.219-1.73-16.033-4.846-23.1l0.144 0.367z" />
<glyph unicode="&#xe901;" glyph-name="premium-animated-gradients" horiz-adv-x="960" d="M775.009 535.67l-344.026 344.501-4.752 5.702-65.099 63.673c-6.276 5.632-14.615 9.075-23.759 9.075s-17.483-3.443-23.792-9.104l0.033 0.029c-6.22-6.546-10.047-15.418-10.047-25.184s3.826-18.638 10.061-25.2l-0.015 0.016 38.489-38.489-294.133-294.133c-35.524-28.45-58.077-71.819-58.077-120.457s22.554-92.007 57.773-120.221l0.304-0.235 190.070-190.070c30.095-33.442 72.611-55.195 120.224-57.949l0.471-0.022c47.803 2.294 90.127 23.986 119.586 57.314l0.158 0.182 285.104 285.104c14.59 14.609 23.647 34.747 23.759 57v0.021c0.046 1.008 0.072 2.189 0.072 3.377 0 21.433-8.548 40.869-22.421 55.085l0.016-0.016zM438.586 186.417c-15.442-22.395-40.954-36.886-69.851-36.886s-54.409 14.491-69.666 36.602l-0.185 0.283-190.070 190.070c-11.892 11.065-21.756 24.116-29.102 38.656l-0.359 0.783 617.726 26.61zM84.106 487.677c7.315 11.831 15.315 22.098 24.29 31.42l-0.056-0.058 292.232 292.232 293.182-296.984zM700.882-64.475h-617.726c-19.682 0-35.638 15.956-35.638 35.638s15.956 35.638 35.638 35.638v0h617.726c19.682 0 35.638-15.956 35.638-35.638s-15.956-35.638-35.638-35.638v0zM836.306 26.283c-68.29 0.27-123.545 55.692-123.545 124.020 0 0 0 0.001 0 0.001v0c0 68.425 81.255 160.134 97.411 177.715 6.292 7.016 15.386 11.41 25.506 11.41 0.221 0 0.442-0.002 0.662-0.006h-0.033c0.187 0.004 0.408 0.006 0.629 0.006 10.12 0 19.214-4.394 25.477-11.378l0.028-0.032c16.631-17.581 97.411-109.29 97.411-177.715 0.001-0.141 0.001-0.308 0.001-0.475 0-68.232-55.313-123.545-123.545-123.545 0 0-0.001 0-0.001 0v0zM836.306 248.665c-24.251-27.089-42.385-60.173-51.909-96.732l-0.36-1.629c0-28.867 23.402-52.269 52.269-52.269s52.269 23.402 52.269 52.269v0c-9.649 38.246-27.822 71.376-52.442 98.555l0.173-0.194z" />
<glyph unicode="&#xe902;" glyph-name="premium-background-transition" d="M869.209 388.465h-95.256l68.108 68.108c29.666 27.258 48.191 66.238 48.191 109.544s-18.525 82.286-48.084 109.447l-0.107 0.097-102.4 100.971c-27.63 28.901-66.489 46.866-109.544 46.866s-81.914-17.965-109.49-46.809l-0.054-0.057-68.108-66.679v95.256c0.1 2.037 0.157 4.425 0.157 6.825 0 81.806-66.317 148.123-148.123 148.123-2.401 0-4.788-0.057-7.16-0.17l0.335 0.013h-142.884c-2.037 0.1-4.425 0.157-6.825 0.157-81.806 0-148.123-66.317-148.123-148.123 0-2.401 0.057-4.788 0.17-7.16l-0.013 0.335v-642.977c-0.001-0.184-0.001-0.402-0.001-0.619 0-16.641 1.735-32.877 5.033-48.536l-0.269 1.528c0-6.192 2.858-12.86 5.239-20.48 3.814-13.339 8.518-24.875 14.291-35.757l-0.478 0.989 5.239-9.526 5.715-9.049 11.907-17.146 8.097-10.478 10.478-11.431 4.763-4.287c1.355-1.664 2.926-3.083 4.685-4.239l0.078-0.048c3.559-3.65 7.454-6.94 11.645-9.831l0.262-0.171 10.002-7.144c3.038-2.316 6.466-4.527 10.062-6.463l0.416-0.205 13.336-7.62c10.758-6.096 23.231-11.44 36.314-15.378l1.312-0.339 22.385-5.715c13.432-2.669 28.901-4.227 44.722-4.286h643.977c2.037-0.1 4.425-0.157 6.825-0.157 81.806 0 148.123 66.317 148.123 148.123 0 2.401-0.057 4.788-0.17 7.16l0.013-0.335v142.884c0.1 2.037 0.157 4.425 0.157 6.825 0 81.806-66.317 148.123-148.123 148.123-2.401 0-4.788-0.057-7.16-0.17l0.335 0.013zM452.465 607.553l118.593 118.593c14.475 16.43 35.563 26.742 59.059 26.742s44.583-10.311 58.984-26.655l0.075-0.086 100.971-100.971c16.718-14.326 27.245-35.463 27.245-59.059s-10.527-44.733-27.14-58.971l-0.105-0.088-129.072-130.5-208.61-208.134zM194.798 10.776l-13.336 2.858-14.288 5.239h-6.668l-11.907 6.668c-23.477 14.26-42.371 33.917-55.325 57.319l-0.4 0.787-6.192 10.954c0.098 0.429 0.155 0.923 0.155 1.429s-0.056 0.999-0.163 1.473l0.008-0.045s0 0 0 0c0.075 0.501 0.117 1.079 0.117 1.667s-0.043 1.166-0.125 1.731l0.008-0.064c0 4.763-3.334 9.526-4.763 14.288-1.4 4.018-2.719 8.976-3.697 14.056l-0.114 0.708c-2.12 9.362-3.334 20.114-3.334 31.149 0 0.1 0 0.2 0 0.301v-0.016 643.929c-0.162 1.873-0.254 4.053-0.254 6.254 0 42.613 34.544 77.157 77.157 77.157 1.094 0 2.183-0.023 3.267-0.068l-0.155 0.005h142.884c1.936 0.173 4.188 0.271 6.463 0.271 42.613 0 77.157-34.544 77.157-77.157 0-2.275-0.098-4.527-0.291-6.752l0.020 0.289v-642.977c-0.025-42.129-16.929-80.305-44.314-108.136l0.020 0.021c-3.446-3.631-7.183-6.915-11.198-9.84l-0.233-0.162c-10.941-9.652-23.725-17.538-37.709-23.036l-0.869-0.301-12.383-4.763c-13.457-4.544-28.954-7.167-45.065-7.167-0.901 0-1.801 0.008-2.698 0.025l0.135-0.002c-2.161-0.113-4.691-0.178-7.237-0.178-8.717 0-17.256 0.758-25.556 2.211l0.882-0.128zM952.558 90.791c0.173-1.936 0.271-4.188 0.271-6.463 0-42.613-34.544-77.157-77.157-77.157-2.275 0-4.527 0.098-6.752 0.291l0.289-0.020h-476.279l310.058 309.581h166.221c1.936 0.173 4.188 0.271 6.463 0.271 42.613 0 77.157-34.544 77.157-77.157 0-2.275-0.098-4.527-0.291-6.752l0.020 0.289zM34.768 43.163v0c-1.879 2.611-3.626 5.579-5.094 8.705l-0.145 0.344zM54.772 14.586l-6.192 7.144c-4.763 6.192-9.049 12.86-13.336 19.051v0l11.907-17.146zM54.772 14.586l-6.192 7.144c-0.117 0.501-0.185 1.076-0.185 1.667s0.067 1.166 0.195 1.718l-0.010-0.051zM46.675 25.064l-11.431 15.717c-1.879 2.611-3.626 5.579-5.094 8.705l-0.145 0.344 5.715-9.049zM85.254 98.411c0.075 0.501 0.117 1.079 0.117 1.667s-0.043 1.166-0.125 1.731l0.008-0.064c0 4.763-3.334 9.526-4.763 14.288 0-6.192 2.381-11.907 4.763-17.622zM92.874 83.647l-6.192 10.954c0.098 0.429 0.155 0.923 0.155 1.429s-0.056 0.999-0.163 1.473l0.008-0.045c1.787-5.312 3.881-9.877 6.386-14.172l-0.194 0.36zM160.982 21.73h-2.858l-11.907 6.668zM180.51 14.11l-14.288 5.239h-3.81l17.622-6.668zM226.233 78.884c-46.032 0-83.349 37.317-83.349 83.349s37.317 83.349 83.349 83.349c46.032 0 83.349-37.317 83.349-83.349v0c-0.269-45.924-37.425-83.080-83.323-83.349h-0.026zM226.233 174.14c-6.576 0-11.907-5.331-11.907-11.907v0c0-13.336 23.814-13.336 23.814 0 0 6.576-5.331 11.907-11.907 11.907v0z" />
<glyph unicode="&#xe903;" glyph-name="premium-banner" d="M654.884 960h-285.767c-258.62 0-369.116-110.497-369.116-369.116v-285.767c0-258.62 110.497-369.116 369.116-369.116h285.767c258.62 0 369.116 110.497 369.116 369.116v285.767c0 258.62-110.497 369.116-369.116 369.116zM952.558 305.116c0-219.565-78.11-297.674-297.674-297.674h-285.767c-131.453 0-212.42 28.1-255.286 97.637l208.61 140.026c10.831 6.961 24.054 11.097 38.242 11.097 16.523 0 31.736-5.609 43.839-15.027l-0.16 0.12 16.193-14.288c24.431-20.113 56.038-32.309 90.493-32.309s66.062 12.196 90.74 32.506l-0.246-0.197 198.132 170.032c11.882 9.598 27.172 15.407 43.818 15.407s31.935-5.809 43.951-15.511l-0.133 0.104 65.25-56.201zM952.558 435.617l-18.575 15.717c-24.431 20.113-56.038 32.309-90.493 32.309s-66.062-12.196-90.74-32.506l0.246 0.197-198.132-170.032c-11.841-9.482-27.041-15.217-43.58-15.217s-31.738 5.735-43.718 15.324l0.139-0.107-16.193 14.288c-24.464 20.212-56.146 32.471-90.691 32.471-29.173 0-56.304-8.743-78.916-23.752l0.528 0.329-196.703-132.406c-9.168 36.298-14.429 77.967-14.429 120.865 0 4.226 0.051 8.439 0.153 12.641l-0.012-0.624v285.767c0 219.565 78.11 297.674 297.674 297.674h285.767c219.565 0 297.674-78.11 297.674-297.674zM369.116 507.535c-72.336 0-130.977 58.64-130.977 130.977s58.64 130.977 130.977 130.977c72.336 0 130.977-58.64 130.977-130.977v0c0-72.336-58.64-130.977-130.977-130.977v0zM369.116 698.047c-32.88 0-59.535-26.655-59.535-59.535s26.655-59.535 59.535-59.535c32.88 0 59.535 26.655 59.535 59.535v0c0 32.88-26.655 59.535-59.535 59.535v0z" />
<glyph unicode="&#xe904;" glyph-name="premium-behance-feed" d="M360.727 145.455h-279.273c-0.704-0.022-1.532-0.035-2.363-0.035-43.701 0-79.127 35.426-79.127 79.127 0 0.831 0.013 1.659 0.038 2.483l-0.003-0.121v465.455c-0.022 0.704-0.035 1.532-0.035 2.363 0 43.701 35.426 79.127 79.127 79.127 0.831 0 1.659-0.013 2.483-0.038l-0.121 0.003h232.727c96.497-0.548 174.51-78.901 174.51-175.474 0-47.407-18.799-90.423-49.35-122l0.047 0.048c57.156-29.587 95.544-88.275 95.544-155.929 0-96.373-77.897-174.552-174.163-175.009h-0.043zM69.818 424.727v-197.818c0-8.378 3.258-11.636 11.636-11.636h279.273c57.839 0 104.727 46.888 104.727 104.727s-46.888 104.727-104.727 104.727v0zM69.818 494.545h244.364c57.839 0 104.727 46.888 104.727 104.727s-46.888 104.727-104.727 104.727v0h-232.727c-8.844 0-11.636-2.793-11.636-11.636zM858.764 145.455h-79.127c-122.105 0-221.091 98.986-221.091 221.091s98.986 221.091 221.091 221.091c122.105 0 221.091-98.986 221.091-221.091v0c-0.259-19.175-15.734-34.65-34.885-34.909h-333.29c16.489-67.102 76.028-116.135 147.058-116.364h79.153c19.28 0 34.909-15.629 34.909-34.909s-15.629-34.909-34.909-34.909v0zM632.553 401.455h294.167c-16.509 67.006-76.084 115.92-147.084 115.92s-130.575-48.913-146.867-114.881l-0.217-1.039zM849.455 634.182h-139.636c-19.28 0-34.909 15.629-34.909 34.909s15.629 34.909 34.909 34.909v0h139.636c19.28 0 34.909-15.629 34.909-34.909s-15.629-34.909-34.909-34.909v0z" />
<glyph unicode="&#xe905;" glyph-name="premium-blob-generator" d="M832.698 75.636c-0.048 0-0.105 0-0.163 0-9.587 0-18.259 3.917-24.503 10.237l-0.003 0.003c-6.308 6.316-10.209 15.037-10.209 24.669s3.901 18.353 10.21 24.669v0c75.962 76.88 122.884 182.602 122.884 299.282 0 0.656-0.001 1.312-0.004 1.968v-0.101c-0.252 237.594-192.917 430.103-430.545 430.103-237.784 0-430.545-192.762-430.545-430.545 0-117.046 46.706-223.184 122.497-300.792l-0.082 0.085c3.266-5.213 5.203-11.548 5.203-18.335 0-19.28-15.629-34.909-34.909-34.909-7.731 0-14.875 2.513-20.66 6.767l0.097-0.068c-87.804 90.061-141.961 213.285-141.961 349.159 0 276.343 224.020 500.364 500.364 500.364s500.364-224.020 500.364-500.364c0-0.515-0.001-1.030-0.002-1.544v0.080c0.002-0.536 0.003-1.17 0.003-1.804 0-135.976-54.749-259.164-143.404-348.725l0.041 0.042c-6.362-6.239-15.051-10.125-24.647-10.24h-0.022zM500.364-17.455c-106.167 0-192.233 86.066-192.233 192.233s86.066 192.233 192.233 192.233c106.167 0 192.233-86.066 192.233-192.233v0c0-106.167-86.066-192.233-192.233-192.233v0zM500.364 297.193c-67.608 0-122.415-54.807-122.415-122.415s54.807-122.415 122.415-122.415c67.608 0 122.415 54.807 122.415 122.415v0c-0.265 67.407-54.97 121.949-122.414 121.949 0 0-0.001 0-0.001 0v0zM686.545 424.727h-34.909c-38.56 0-69.818 31.259-69.818 69.818v0 34.909c0 57.839 46.888 104.727 104.727 104.727s104.727-46.888 104.727-104.727c0-57.839-46.888-104.727-104.727-104.727v0zM686.545 564.364c-19.175-0.259-34.65-15.734-34.909-34.885v-34.934h34.909c19.28 0 34.909 15.629 34.909 34.909s-15.629 34.909-34.909 34.909v0z" />
<glyph unicode="&#xe906;" glyph-name="premium-blog" d="M844.069 887.832c-38.42 41.296-91.798 68.227-151.46 72.132l-0.677 0.035c-63.708-4.405-119.494-35.026-157.189-81.039l-0.312-0.393-63.39-67.779-4.389-5.364-332.556-351.086c-21.205-24.71-36.211-55.333-42.253-89.065l-0.17-1.144-18.042-158.476c-0.511-4.141-0.802-8.934-0.802-13.795 0-32.656 13.156-62.239 34.457-83.738l-0.009 0.009c19.925-18.154 46.537-29.271 75.746-29.271 0.628 0 1.254 0.005 1.88 0.015l-0.094-0.001c3.434-0.336 7.424-0.527 11.459-0.527s8.025 0.191 11.961 0.566l-0.502-0.039 157.013 26.819c34.792 7.982 64.778 25.127 88.249 48.752l0.010 0.010 330.118 349.135 5.851 6.827 62.903 66.316c38.807 36.106 65.128 85.172 72.051 140.274l0.116 1.136c0.010 0.769 0.016 1.676 0.016 2.586 0 67.352-31.035 127.456-79.584 166.791l-0.402 0.315zM399.36 205.166c-13.218-12.275-29.735-21.175-48.072-25.228l-0.689-0.128-157.013-26.819c-3.118-0.801-6.698-1.261-10.385-1.261-10.318 0-19.796 3.601-27.244 9.615l0.083-0.064c-7.34 8.029-11.837 18.766-11.837 30.552 0 2.643 0.226 5.233 0.66 7.751l-0.038-0.269 18.042 157.013c4.074 18.776 12.248 35.209 23.564 48.96l-0.158-0.198 289.158 302.811c36.449-95.972 113.334-169.34 209.276-200.245l2.35-0.654zM800.183 629.394l-54.126-59.002c-105.52 17.927-188.529 97.167-211.779 199.149l-0.336 1.75 53.638 56.564c60.465 63.878 118.491 89.234 206.263 6.827 34.399-25.715 56.973-65.617 58.991-110.865l0.011-0.312c-6.497-38.269-25.467-71.272-52.504-95.434l-0.159-0.14zM938.667-80.579h-877.714c-20.198 0-36.571 16.374-36.571 36.571s16.374 36.571 36.571 36.571v0h877.714c20.198 0 36.571-16.374 36.571-36.571s-16.374-36.571-36.571-36.571v0z" />
<glyph unicode="&#xe907;" glyph-name="premium-bullet-list" d="M960 38.4h-512c-21.208 0-38.4 17.192-38.4 38.4s17.192 38.4 38.4 38.4v0h512c21.208 0 38.4-17.192 38.4-38.4s-17.192-38.4-38.4-38.4v0zM960 396.8h-512c-21.208 0-38.4 17.192-38.4 38.4s17.192 38.4 38.4 38.4v0h512c21.208 0 38.4-17.192 38.4-38.4s-17.192-38.4-38.4-38.4v0zM960 755.2h-512c-21.208 0-38.4 17.192-38.4 38.4s17.192 38.4 38.4 38.4v0h512c21.208 0 38.4-17.192 38.4-38.4s-17.192-38.4-38.4-38.4v0zM89.6 704c-10.049 0.378-19.041 4.614-25.596 11.26l-51.204 51.204c-11.683 6.733-19.42 19.154-19.42 33.382 0 21.208 17.192 38.4 38.4 38.4 13.442 0 25.27-6.906 32.131-17.364l0.090-0.146 24.064-24.064 129.536 126.464c6.95 10.603 18.779 17.51 32.22 17.51 21.208 0 38.4-17.192 38.4-38.4 0-14.228-7.738-26.648-19.235-33.283l-0.186-0.099-153.6-153.6c-6.559-6.65-15.551-10.886-25.531-11.262l-0.069-0.002zM89.6 345.6c-10.049 0.378-19.041 4.614-25.596 11.26l-51.204 51.204c-11.683 6.733-19.42 19.154-19.42 33.382 0 21.208 17.192 38.4 38.4 38.4 13.442 0 25.27-6.906 32.131-17.364l0.090-0.146 24.064-24.064 129.536 126.464c6.95 10.603 18.779 17.51 32.22 17.51 21.208 0 38.4-17.192 38.4-38.4 0-14.228-7.738-26.648-19.235-33.283l-0.186-0.099-153.6-153.6c-6.559-6.65-15.551-10.886-25.531-11.262l-0.069-0.002zM89.6-12.8c-10.049 0.378-19.041 4.614-25.596 11.26l-51.204 51.204c-3.874 5.896-6.18 13.124-6.18 20.89 0 21.208 17.192 38.4 38.4 38.4 6.98 0 13.525-1.862 19.165-5.117l-0.186 0.099 24.064-24.064 129.536 126.464c6.95 10.603 18.779 17.51 32.22 17.51 21.208 0 38.4-17.192 38.4-38.4 0-14.228-7.738-26.648-19.235-33.283l-0.186-0.099-153.6-153.6c-6.559-6.65-15.551-10.886-25.531-11.262l-0.069-0.002z" />
<glyph unicode="&#xe908;" glyph-name="premium-button" d="M709.818 168.727h-70.284c-19.28 0-34.909 15.629-34.909 34.909s15.629 34.909 34.909 34.909v0h70.284c122.105 0 221.091 98.986 221.091 221.091s-98.986 221.091-221.091 221.091v0h-70.284c-19.28 0-34.909 15.629-34.909 34.909s15.629 34.909 34.909 34.909v0h70.284c160.665 0 290.909-130.244 290.909-290.909s-130.244-290.909-290.909-290.909v0zM360.727 168.727h-69.818c-160.665 0-290.909 130.244-290.909 290.909s130.244 290.909 290.909 290.909v0h69.818c19.28 0 34.909-15.629 34.909-34.909s-15.629-34.909-34.909-34.909v0h-69.818c-122.105 0-221.091-98.986-221.091-221.091s98.986-221.091 221.091-221.091v0h69.818c19.28 0 34.909-15.629 34.909-34.909s-15.629-34.909-34.909-34.909v0zM686.545 424.727h-372.364c-19.28 0-34.909 15.629-34.909 34.909s15.629 34.909 34.909 34.909v0h372.364c19.28 0 34.909-15.629 34.909-34.909s-15.629-34.909-34.909-34.909v0z" />
<glyph unicode="&#xe909;" glyph-name="premium-carousel" d="M140.8 320c-77.762 0-140.8 63.038-140.8 140.8s63.038 140.8 140.8 140.8c77.762 0 140.8-63.038 140.8-140.8v0c0-77.762-63.038-140.8-140.8-140.8v0zM140.8 524.8c-35.346 0-64-28.654-64-64s28.654-64 64-64c35.346 0 64 28.654 64 64v0c0 35.346-28.654 64-64 64v0zM857.6 320c-77.762 0-140.8 63.038-140.8 140.8s63.038 140.8 140.8 140.8c77.762 0 140.8-63.038 140.8-140.8v0c0-77.762-63.038-140.8-140.8-140.8v0zM857.6 524.8c-35.346 0-64-28.654-64-64s28.654-64 64-64c35.346 0 64 28.654 64 64v0c0 35.346-28.654 64-64 64v0zM499.2 320c-77.762 0-140.8 63.038-140.8 140.8s63.038 140.8 140.8 140.8c77.762 0 140.8-63.038 140.8-140.8v0c0-77.762-63.038-140.8-140.8-140.8v0zM499.2 524.8c-35.346 0-64-28.654-64-64s28.654-64 64-64c35.346 0 64 28.654 64 64v0c0 35.346-28.654 64-64 64v0z" />
<glyph unicode="&#xe90a;" glyph-name="premium-charts-1" d="M457.228 491.818v-3.334c0.11 0.501 0.173 1.077 0.173 1.667s-0.063 1.166-0.183 1.72l0.010-0.053zM385.786 452.763v0zM654.884 960h-285.767c-258.62 0-369.116-110.497-369.116-369.116v-285.767c0-258.62 110.497-369.116 369.116-369.116h285.767c258.62 0 369.116 110.497 369.116 369.116v285.767c0 258.62-110.497 369.116-369.116 369.116zM952.558 305.116c0-219.565-78.11-297.674-297.674-297.674h-285.767c-219.565 0-297.674 78.11-297.674 297.674v285.767c0 219.565 78.11 297.674 297.674 297.674h285.767c219.565 0 297.674-78.11 297.674-297.674zM728.707 443.237h-90.969v207.658c0 0 0 0.001 0 0.001 0 49.547-40.031 89.745-89.515 90.015h-72.42c-49.715 0-90.017-40.302-90.017-90.017v0-126.69h-88.112c-49.715 0-90.017-40.302-90.017-90.017v0-243.855c0.265-19.621 16.1-35.456 35.696-35.721h539.649c19.621 0.265 35.456 16.1 35.721 35.696v163.389c-0.796 49.295-40.682 89.014-89.966 89.54h-0.050zM277.194 434.188c0 0.029 0 0.064 0 0.098 0 10.259 8.316 18.575 18.575 18.575 0.671 0 1.334-0.036 1.987-0.105l-0.081 0.007h90.493v-226.709h-110.973zM566.296 226.53h-109.068v424.365c0 10.259 8.316 18.575 18.575 18.575v0h72.394c0.002 0 0.004 0 0.006 0 9.996 0 18.099-8.103 18.099-18.099 0-0.167-0.002-0.334-0.007-0.501l0.001 0.025zM747.282 226.53h-109.068v142.884h90.493c10.153-0.259 18.316-8.422 18.574-18.551v-0.024z" />
<glyph unicode="&#xe90b;" glyph-name="premium-charts-2" d="M837.149 423.479h-162.82c-122.115 0-183.908 69.149-183.908 205.487v143.693c-0.695 6.197-1.091 13.381-1.091 20.658 0 54.914 22.564 104.559 58.927 140.167l0.034 0.033c43.157 32.368 106.421 34.82 199.111 7.847 123.717-39.228 219.225-134.736 257.689-255.674l0.763-2.778c26.973-92.199 24.521-155.464-8.337-198.621-35.853-37.969-86.537-61.606-142.741-61.606-6.206 0-12.344 0.288-18.403 0.852l0.776-0.058zM640.981 883.985c-1.476 0.101-3.198 0.158-4.934 0.158-15.271 0-29.503-4.446-41.473-12.113l0.308 0.185c-19.126-14.713-28.444-49.042-28.444-102.008v-138.789c0-109.854 42.176-131.923 110.345-131.923h162.82c53.946 0 87.295 9.318 101.517 28.935s15.693 67.678-3.433 133.885c-32.019 99.703-109.116 176.638-206.666 207.807l-2.253 0.622c-26.764 8.942-57.648 14.602-89.694 15.679l-0.543 0.014zM482.084-64c-1.14-0.010-2.487-0.015-3.835-0.015-266.248 0-482.084 215.836-482.084 482.084 0 232.896 165.149 427.219 384.726 472.249l3.109 0.533c2.212 0.472 4.752 0.743 7.356 0.743 20.318 0 36.789-16.471 36.789-36.789 0-17.714-12.52-32.504-29.193-36.004l-0.24-0.042c-187.913-39.478-326.977-203.849-326.977-400.7 0-225.891 183.121-409.011 409.011-409.011 197.436 0 362.199 139.892 400.575 325.964l0.456 2.645c3.542 16.913 18.332 29.433 36.046 29.433 20.318 0 36.789-16.471 36.789-36.789 0-2.604-0.271-5.145-0.785-7.596l0.042 0.24c-45.687-222.077-239.477-386.735-471.762-386.943h-0.023z" />
<glyph unicode="&#xe90c;" glyph-name="premium-contact-form" d="M733.091 29.091h-465.455c-169.891 0-267.636 97.745-267.636 267.636v325.818c0 169.891 97.745 267.636 267.636 267.636h465.455c169.891 0 267.636-97.745 267.636-267.636v-325.818c0-169.891-97.745-267.636-267.636-267.636zM267.636 820.364c-133.12 0-197.818-64.698-197.818-197.818v-325.818c0-133.12 64.698-197.818 197.818-197.818h465.455c133.12 0 197.818 64.698 197.818 197.818v325.818c0 133.12-64.698 197.818-197.818 197.818zM499.898 419.142c-0.508-0.005-1.108-0.008-1.709-0.008-40.514 0-77.837 13.657-107.619 36.619l0.412-0.305-146.618 116.364c-7.842 6.618-12.789 16.453-12.789 27.444 0 8.914 3.254 17.068 8.64 23.339l-0.040-0.048c6.537 7.953 16.375 12.987 27.389 12.987 8.965 0 17.15-3.335 23.384-8.831l-0.039 0.033 145.222-116.364c18.1-13.281 40.817-21.252 65.396-21.252s47.297 7.971 65.708 21.47l-0.312-0.218 142.895 116.364c6.232 5.307 14.375 8.535 23.273 8.535 19.88 0 35.997-16.116 35.997-35.997 0-10.983-4.919-20.817-12.673-27.42l-0.051-0.042-145.687-116.364c-29.43-22.673-66.817-36.338-107.396-36.338-1.189 0-2.376 0.012-3.559 0.035l0.177-0.003z" />
<glyph unicode="&#xe90d;" glyph-name="premium-content-switcher" d="M593.455 52.364h-186.182c-224.931 0-407.273 182.342-407.273 407.273s182.342 407.273 407.273 407.273v0h186.182c224.931 0 407.273-182.342 407.273-407.273s-182.342-407.273-407.273-407.273v0zM407.273 797.091c-186.371 0-337.455-151.084-337.455-337.455s151.084-337.455 337.455-337.455v0h186.182c186.371 0 337.455 151.084 337.455 337.455s-151.084 337.455-337.455 337.455v0zM593.455 238.545c-122.105 0-221.091 98.986-221.091 221.091s98.986 221.091 221.091 221.091c122.105 0 221.091-98.986 221.091-221.091v0c0-122.105-98.986-221.091-221.091-221.091v0zM593.455 610.909c-83.546 0-151.273-67.727-151.273-151.273s67.727-151.273 151.273-151.273c83.546 0 151.273 67.727 151.273 151.273v0c-0.264 83.439-67.833 151.009-151.247 151.273h-0.025z" />
<glyph unicode="&#xe90e;" glyph-name="premium-countdown" horiz-adv-x="929" d="M690.605 885.7v38.579c0 19.728-15.993 35.721-35.721 35.721s-35.721-15.993-35.721-35.721v0-35.721h-309.581v35.721c0 19.728-15.993 35.721-35.721 35.721s-35.721-15.993-35.721-35.721v0-38.579c-170.984-19.527-238.14-113.831-238.14-325.775v-294.34c0-203.371 53.82-329.585 321.488-329.585h285.767c267.669 0 321.488 126.214 321.488 329.585v294.34c0 209.563-69.537 306.724-238.14 325.775zM607.256 7.442h-285.767c-160.030 0-220.517 41.913-240.997 138.597h767.762c-20.48-96.685-80.967-138.597-240.997-138.597zM857.302 265.585c0-17.146 0-32.863 0-47.628h-784.432c0 15.241 0 30.958 0 47.628v294.34c0 188.13 56.677 238.14 166.698 253.857v-32.387c0-19.728 15.993-35.721 35.721-35.721s35.721 15.993 35.721 35.721v0 35.721h309.581v-35.721c0-19.728 15.993-35.721 35.721-35.721s35.721 15.993 35.721 35.721v0 32.387c110.497-13.336 166.698-65.727 166.698-253.857zM464.372 627.081c-3.864 0.555-8.327 0.873-12.864 0.873-52.608 0-95.256-42.647-95.256-95.256 0-0.307 0.001-0.613 0.004-0.919v0.047c0.139-27.33 14.643-51.241 36.343-64.585l0.331-0.189c-28.056-14.962-46.975-43.777-47.627-77.069l-0.001-0.088c0-59.535 45.247-95.256 119.070-95.256s119.070 36.197 119.070 95.256c-0.321 33.475-19.362 62.429-47.144 76.927l-0.484 0.23c21.061 13.683 34.795 37.094 34.795 63.712 0 0.708-0.010 1.414-0.029 2.118l0.002-0.104c-0.182 52.47-42.76 94.935-95.255 94.935-3.86 0-7.667-0.23-11.407-0.676l0.452 0.044zM464.372 491.341c-1.143-0.119-2.469-0.186-3.811-0.186-21.468 0-38.89 17.321-39.054 38.749v0.016c0.101 20.967 17.121 37.925 38.102 37.925 1.679 0 3.333-0.109 4.955-0.319l-0.191 0.020c1.43 0.19 3.084 0.299 4.763 0.299 20.981 0 38.001-16.958 38.102-37.915v-0.010c-0.164-21.444-17.586-38.765-39.054-38.765-1.342 0-2.669 0.068-3.976 0.2l0.165-0.013zM464.372 353.22c-31.434 0-54.296 15.717-54.296 44.294s22.861 43.818 54.296 43.818 54.296-15.717 54.296-43.818-22.861-44.294-54.296-44.294z" />
<glyph unicode="&#xe90f;" glyph-name="premium-counter" horiz-adv-x="905" d="M452.465-64c-249.89 0-452.465 202.576-452.465 452.465s202.576 452.465 452.465 452.465c249.89 0 452.465-202.576 452.465-452.465v0c-0.271-249.781-202.685-452.194-452.439-452.465h-0.026zM452.465 769.488c-210.433 0-381.023-170.59-381.023-381.023s170.59-381.023 381.023-381.023c210.433 0 381.023 170.59 381.023 381.023v0c0 210.433-170.59 381.023-381.023 381.023v0zM452.465 364.651c-19.621 0.265-35.456 16.1-35.721 35.696v238.165c0 19.728 15.993 35.721 35.721 35.721s35.721-15.993 35.721-35.721v0-238.14c-0.265-19.621-16.1-35.456-35.696-35.721h-0.025zM595.349 888.558h-285.767c-19.728 0-35.721 15.993-35.721 35.721s15.993 35.721 35.721 35.721v0h285.767c19.728 0 35.721-15.993 35.721-35.721s-15.993-35.721-35.721-35.721v0z" />
<glyph unicode="&#xe910;" glyph-name="premium-divider" d="M965.818 494.545h-223.884c-17.092 119.465-118.725 210.285-241.571 210.285s-224.479-90.821-241.417-208.981l-0.153-1.305h-223.884c-19.28 0-34.909-15.629-34.909-34.909s15.629-34.909 34.909-34.909v0h223.884c17.092-119.465 118.725-210.285 241.571-210.285s224.479 90.821 241.417 208.981l0.153 1.305h223.884c19.28 0 34.909 15.629 34.909 34.909s-15.629 34.909-34.909 34.909v0zM500.364 285.091c-96.399 0-174.545 78.147-174.545 174.545s78.147 174.545 174.545 174.545c96.399 0 174.545-78.147 174.545-174.545v0c0-96.399-78.147-174.545-174.545-174.545v0z" />
<glyph unicode="&#xe911;" glyph-name="premium-dual-heading" d="M843.404 792.436v-70.284c0-19.28-15.629-34.909-34.909-34.909s-34.909 15.629-34.909 34.909v0 70.284c0 28.277-22.923 51.2-51.2 51.2v0h-265.775v-651.636h93.091c19.28 0 34.909-15.629 34.909-34.909s-15.629-34.909-34.909-34.909v0h-258.327c-19.28 0-34.909 15.629-34.909 34.909s15.629 34.909 34.909 34.909v0h93.091v651.636h-263.447c-28.277 0-51.2-22.923-51.2-51.2v0-70.284c0-19.28-15.629-34.909-34.909-34.909s-34.909 15.629-34.909 34.909v0 70.284c0.263 66.73 54.288 120.755 120.993 121.018h601.392c66.73-0.263 120.755-54.288 121.018-120.993v-0.025zM1001.658 455.447v-39.098c0-19.28-15.629-34.909-34.909-34.909s-34.909 15.629-34.909 34.909v0 37.236c-0.257 14.548-11.983 26.274-26.507 26.531h-179.689v-446.371h64.698c19.28 0 34.909-15.629 34.909-34.909s-15.629-34.909-34.909-34.909v0h-199.215c-19.28 0-34.909 15.629-34.909 34.909s15.629 34.909 34.909 34.909v0h64.698v448.233h-76.8c-19.28 0-34.909 15.629-34.909 34.909s15.629 34.909 34.909 34.909v0h325.818c0.138 0.001 0.302 0.001 0.465 0.001 53.212 0 96.349-43.137 96.349-96.349 0 0 0-0.001 0-0.001v0z" />
<glyph unicode="&#xe912;" glyph-name="premium-facebook-feed" d="M654.884 960h-285.767c-258.62 0-369.116-110.497-369.116-369.116v-285.767c0-258.62 110.497-369.116 369.116-369.116h285.767c258.62 0 369.116 110.497 369.116 369.116v285.767c0 258.62-110.497 369.116-369.116 369.116zM500.093 7.442v342.921h-95.256v47.628h95.256v192.893c-0.018 0.717-0.028 1.562-0.028 2.409 0 57.869 46.912 104.781 104.781 104.781 0.847 0 1.692-0.010 2.534-0.030l-0.125 0.002h107.163v-71.442h-92.874c-0.73 0.040-1.584 0.063-2.444 0.063-26.304 0-47.628-21.324-47.628-47.628 0-0.86 0.023-1.714 0.068-2.563l-0.005 0.118v-173.842h133.834l-10.002-47.628h-123.833v-347.684zM952.558 305.116c0-219.565-78.11-297.674-297.674-297.674h-11.907v273.86h69.060c23.379 1.019 42.601 17.643 47.563 39.667l0.065 0.341 18.575 88.588v7.144c0.074 1.037 0.117 2.247 0.117 3.467 0 27.109-20.971 49.32-47.575 51.295l-0.17 0.010h-87.635v80.967h92.874c0.785-0.046 1.703-0.073 2.627-0.073 26.304 0 47.628 21.324 47.628 47.628 0 1.703-0.089 3.385-0.264 5.042l0.018-0.207v114.307c0 0.018 0 0.039 0 0.060 0 26.304-21.324 47.628-47.628 47.628-0.838 0-1.67-0.022-2.497-0.064l0.116 0.005h-128.595c-0.566 0.007-1.236 0.010-1.906 0.010-97.425 0-176.434-78.846-176.699-176.208v-121.476h-45.247c-0.711 0.038-1.544 0.060-2.381 0.060-26.304 0-47.628-21.324-47.628-47.628 0-0.021 0-0.042 0-0.063v0.003-92.874c-0.040-0.73-0.063-1.584-0.063-2.444 0-26.304 21.324-47.628 47.628-47.628 0.86 0 1.714 0.023 2.563 0.068l-0.118-0.005h45.247v-271.479h-59.535c-219.565 0-297.674 78.11-297.674 297.674v285.767c0 219.565 78.11 297.674 297.674 297.674h285.767c219.565 0 297.674-78.11 297.674-297.674z" />
<glyph unicode="&#xe913;" glyph-name="premium-facebook-reviews" d="M989.379 554.301c-25.363 33.362-65.074 54.682-109.765 54.682-1.525 0-3.045-0.025-4.559-0.074l0.221 0.006h-195.048c-0.058-0.001-0.127-0.001-0.196-0.001-3.722 0-7.096 1.489-9.559 3.905l0.002-0.002c-1.997 2.538-3.204 5.781-3.204 9.305 0 1.021 0.101 2.018 0.294 2.982l-0.016-0.096 23.893 154.088c1.496 7.448 2.352 16.011 2.352 24.773 0 57.312-36.621 106.071-87.739 124.154l-0.921 0.284c-12.533 4.31-26.973 6.798-41.996 6.798-44.409 0-83.74-21.746-107.923-55.171l-0.268-0.389-145.31-216.99c-15.604 48.762-57.539 76.069-126.781 76.069h-48.762c-91.672 1.95-134.095-40.472-134.095-127.269v-477.867c0-86.796 43.886-129.219 134.095-129.219h48.762c5.22-0.828 11.239-1.302 17.369-1.302 46.801 0 87.159 27.587 105.699 67.388l0.3 0.718 104.35-80.457c31.403-24.95 71.626-40.030 115.371-40.030 1.44 0 2.877 0.016 4.309 0.049l-0.213-0.004h185.295c79.545 1.269 146.549 53.548 169.82 125.497l0.359 1.284 117.029 355.474c5.658 14.225 8.938 30.708 8.938 47.957 0 27.36-8.254 52.792-22.408 73.943l0.304-0.482zM243.81 133.486c0-43.398-6.339-56.076-60.952-56.076h-48.762c-53.15 0-60.952 12.678-60.952 56.076v477.867c0 43.398 7.802 56.076 60.952 56.076h48.762c53.15 0 60.952-12.678 60.952-56.076zM933.303 456.777l-118.004-358.4c-14.993-42.649-54.221-72.983-100.749-74.601l-0.189-0.005h-184.32c-0.83-0.021-1.807-0.033-2.787-0.033-25.282 0-48.684 8.050-67.782 21.728l0.351-0.239-142.872 109.714v390.095l198.461 294.522c11.304 12.657 27.671 20.587 45.89 20.587 6.239 0 12.262-0.93 17.936-2.659l-0.435 0.114c23.464-8.836 39.853-31.096 39.853-57.184 0-3.57-0.307-7.069-0.896-10.471l0.052 0.363-24.381-156.526c-0.396-3.115-0.622-6.719-0.622-10.376 0-22.512 8.571-43.023 22.627-58.447l-0.062 0.069c15.726-17.971 38.706-29.259 64.323-29.259 0.187 0 0.373 0.001 0.559 0.002h195.019c1.189 0.078 2.578 0.123 3.977 0.123 20.215 0 38.254-9.319 50.054-23.895l0.095-0.121c5.575-8.89 8.882-19.694 8.882-31.271 0-8.62-1.834-16.812-5.132-24.208l0.151 0.378z" />
<glyph unicode="&#xe914;" glyph-name="premium-fancy-text" d="M908.288 921.6c0-0.001 0-0.002 0-0.003 0-21.028-16.902-38.108-37.861-38.396h-204.827l-211.456-844.8h187.904c21.208 0 38.4-17.192 38.4-38.4s-17.192-38.4-38.4-38.4v0h-476.16c-21.208 0-38.4 17.192-38.4 38.4s17.192 38.4 38.4 38.4v0h207.36l211.456 844.8h-188.416c-21.208 0-38.4 17.192-38.4 38.4s17.192 38.4 38.4 38.4v0h474.112c20.986-0.289 37.888-17.369 37.888-38.397 0-0.001 0-0.002 0-0.004v0z" />
<glyph unicode="&#xe915;" glyph-name="premium-google-maps" horiz-adv-x="893" d="M446.75 344.171c-101.797 0-184.32 82.523-184.32 184.32s82.523 184.32 184.32 184.32c101.797 0 184.32-82.523 184.32-184.32v0c-0.27-101.688-82.632-184.050-184.294-184.32h-0.026zM446.75 641.369c-62.341 0-112.878-50.537-112.878-112.878s50.537-112.878 112.878-112.878c62.341 0 112.878 50.537 112.878 112.878v0c0 62.341-50.537 112.878-112.878 112.878v0zM446.75-64c-76.418 0.309-145.709 30.564-196.799 79.63l0.096-0.092c-140.502 135.263-295.293 350.541-238.14 607.732v0c45.718 194.396 217.673 336.893 422.909 336.893 4.196 0 8.378-0.060 12.546-0.178l-0.613 0.014c3.24 0.087 7.053 0.136 10.878 0.136 205.399 0 377.463-142.722 422.431-334.405l0.581-2.937c58.106-257.191-95.256-472.469-238.14-607.256-50.598-49.043-119.617-79.337-195.711-79.539h-0.040zM82.396 607.077c-50.962-224.327 90.017-417.697 217.183-540.1 37.944-36.85 89.785-59.57 146.932-59.57s108.989 22.72 146.983 59.62l-0.051-0.050c127.167 122.404 268.621 315.297 217.66 539.624-36.952 162.622-180.285 282.185-351.543 282.185-4.505 0-8.991-0.083-13.456-0.247l0.645 0.019c-3.851 0.148-8.373 0.232-12.915 0.232-171.088 0-314.307-119.325-350.972-279.293l-0.467-2.42z" />
<glyph unicode="&#xe916;" glyph-name="premium-google-reviews" horiz-adv-x="1005" d="M512-64c-1.416-0.014-3.089-0.023-4.764-0.023-197.252 0-367.957 113.659-450.197 279.058l-1.315 2.922c-33.644 66.77-53.345 145.528-53.345 228.886 0 0.407 0 0.813 0.001 1.22v-0.063c-0.001 0.364-0.001 0.796-0.001 1.227 0 83.547 19.882 162.451 55.172 232.238l-1.351-2.946c83.514 168.046 253.998 281.504 450.982 281.504 1.694 0 3.385-0.008 5.075-0.025l-0.258 0.002c1.381 0.013 3.013 0.021 4.647 0.021 130.005 0 248.662-48.589 338.8-128.599l-0.526 0.458c7.062-6.402 11.577-15.503 11.905-25.661l0.001-0.058c0.015-0.386 0.024-0.84 0.024-1.296 0-9.759-4.020-18.578-10.495-24.893l-133.365-133.365c-6.25-5.742-14.621-9.262-23.814-9.262s-17.564 3.52-23.839 9.285l0.025-0.023c-41.274 37.85-96.523 61.046-157.189 61.046-2.171 0-4.335-0.030-6.492-0.089l0.318 0.007c-0.347 0.002-0.758 0.003-1.168 0.003-101.581 0-188.906-61.038-227.298-148.438l-0.624-1.592c-1.028-2.191-2.139-4.066-3.406-5.82l0.072 0.105c-1.706-6.721-3.661-12.432-6.014-17.932l0.299 0.786c-7.559-23.924-11.914-51.437-11.914-79.968 0-0.686 0.003-1.372 0.008-2.057l-0.001 0.105c-0.011-0.894-0.017-1.949-0.017-3.006 0-28.859 4.535-56.66 12.931-82.727l-0.531 1.908c32.481-102.566 126.762-175.626 238.125-175.747h0.014c3.002-0.133 6.524-0.208 10.062-0.208 50.199 0 96.849 15.198 135.599 41.244l-0.872-0.552c31.295 21.845 55.563 51.782 70.012 86.804l0.478 1.307h-215.754c-18.599 1.516-33.144 16.889-33.339 35.701v176.242c1.4 17.821 15.518 31.939 33.214 33.332l0.126 0.008h447.702c0.116 0.001 0.254 0.002 0.391 0.002 17.617 0 32.215-12.925 34.828-29.81l0.025-0.197c6.089-30.221 9.716-65.082 10-100.739l0.001-0.232c0.27-6.119 0.424-13.297 0.424-20.511 0-141.879-59.537-269.853-154.99-360.301l-0.225-0.211c-85.287-74.181-197.479-119.398-320.232-119.398-6.304 0-12.58 0.119-18.826 0.356l0.9-0.027zM512 888.558c-1.285 0.014-2.804 0.022-4.324 0.022-169.322 0-315.866-97.524-386.525-239.465l-1.129-2.506c-30.736-57.613-48.787-126.003-48.787-198.608s18.052-140.995 49.911-200.926l-1.124 2.317c71.788-144.447 218.332-241.971 387.654-241.971 1.52 0 3.039 0.008 4.555 0.024l-0.231-0.002c3.707-0.117 8.065-0.184 12.439-0.184 106.66 0 204.025 39.796 278.056 105.35l-0.442-0.384c81.29 78.131 131.792 187.777 131.792 309.219 0 5.99-0.123 11.952-0.366 17.882l0.028-0.85c-0.074 21.066-1.63 41.702-4.568 61.89l0.281-2.356h-381.023v-104.781h225.756c0.014 0 0.030 0 0.047 0 10.563 0 20.056-4.585 26.595-11.874l0.029-0.033c5.712-6.436 9.201-14.958 9.201-24.294 0-1.172-0.055-2.332-0.163-3.476l0.011 0.146c-11.31-74.143-52.029-137.071-109.654-177.567l-0.842-0.561c-49.623-33.812-110.891-53.987-176.872-53.987-3.624 0-7.234 0.061-10.829 0.182l0.523-0.014c-142.599 0.281-263.32 93.635-304.666 222.534l-0.629 2.269c-8.853 28.883-13.951 62.083-13.951 96.474 0 3.424 0.051 6.835 0.151 10.235l-0.012-0.499c-0.004 0.621-0.006 1.355-0.006 2.089 0 37.361 5.926 73.339 16.888 107.044l-0.688-2.446c-0.055 0.713-0.086 1.543-0.086 2.381s0.031 1.669 0.093 2.491l-0.007-0.11c0.098 0.857 0.154 1.851 0.154 2.858s-0.056 2-0.164 2.978l0.011-0.12c1.926 7.588 4.87 14.256 8.736 20.275l-0.163-0.271c50.857 113.147 162.573 190.512 292.36 190.512 0.194 0 0.388 0 0.582-0.001h-0.030c1.357 0.022 2.959 0.035 4.564 0.035 67.349 0 129.515-22.189 179.587-59.654l-0.784 0.561 82.396 82.396c-71.799 52.985-162.038 84.802-259.708 84.802-1.627 0-3.252-0.009-4.874-0.026l0.247 0.002z" />
<glyph unicode="&#xe917;" glyph-name="premium-heading" d="M1032.192 790.016v-93.184c0-21.208-17.192-38.4-38.4-38.4s-38.4 17.192-38.4 38.4v0 93.184c0 37.326-30.258 67.584-67.584 67.584v0h-333.824c0.119-0.616 0.188-1.324 0.188-2.048s-0.068-1.432-0.199-2.118l0.011 0.070v-812.032h163.328c21.208 0 38.4-17.192 38.4-38.4s-17.192-38.4-38.4-38.4v0h-402.944c-21.208 0-38.4 17.192-38.4 38.4s17.192 38.4 38.4 38.4v0h163.328v812.032c-0.119 0.616-0.188 1.324-0.188 2.048s0.068 1.432 0.199 2.118l-0.011-0.070h-333.312c-37.326 0-67.584-30.258-67.584-67.584v0-93.184c0-21.208-17.192-38.4-38.4-38.4s-38.4 17.192-38.4 38.4v0 93.184c-0.005 0.457-0.008 0.996-0.008 1.536 0 79.741 64.643 144.384 144.384 144.384 0.003 0 0.006 0 0.009 0h743.423c0.002 0 0.005 0 0.008 0 79.741 0 144.384-64.643 144.384-144.384 0-0.54-0.003-1.080-0.009-1.618l0.001 0.082z" />
<glyph unicode="&#xe918;" glyph-name="premium-horizontal-scroll" d="M997.053 299.789c0-0.036 0-0.078 0-0.121 0-5.609-1.19-10.941-3.332-15.756l0.098 0.247c-2.163-5.013-5.068-9.3-8.631-12.942l-269.466-269.466c-7.151-7.32-17.121-11.859-28.151-11.859-0.145 0-0.29 0.001-0.435 0.002h0.022c-0.056 0-0.122 0-0.188 0-11.1 0-21.142 4.535-28.372 11.853l-0.004 0.004c-7.304 7.313-11.821 17.411-11.821 28.564s4.517 21.251 11.822 28.565v0l201.027 201.566h-819.2c-22.324 0-40.421 18.097-40.421 40.421s18.097 40.421 40.421 40.421v0h924.295c13.069-3.006 23.624-11.789 28.995-23.453l0.108-0.261c2.081-4.604 3.293-9.982 3.293-15.643 0-0.754-0.021-1.502-0.064-2.245l0.005 0.103zM997.053 622.080c-0.299-22.202-18.219-40.122-40.393-40.421h-916.239c-0.036 0-0.078 0-0.121 0-5.609 0-10.941 1.19-15.756 3.332l0.247-0.098c-9.666 4.324-17.234 11.892-21.451 21.292l-0.107 0.266c-2.046 4.605-3.238 9.978-3.238 15.629s1.191 11.024 3.337 15.881l-0.099-0.252c2.267 4.591 5.154 8.511 8.61 11.845l0.013 0.012 269.474 269.474c6.395 4.439 14.322 7.091 22.869 7.091 22.324 0 40.421-18.097 40.421-40.421 0-7.586-2.089-14.683-5.724-20.748l0.102 0.184-201.027-202.644h818.661c22.202-0.299 40.122-18.219 40.421-40.393v-0.028z" />
<glyph unicode="&#xe919;" glyph-name="premium-hover-box" d="M670.125 793.302h-130.024c-127.643 0-187.178-59.059-187.654-185.749-126.69 0-185.749-60.011-185.749-187.178v-130.024c0-128.119 59.535-187.654 187.654-187.654h129.548c127.643 0 187.178 59.059 187.654 185.749 126.69 0 185.749 60.011 185.749 187.654v130.024c0 127.643-59.535 187.178-187.178 187.178zM600.112 290.352c0-89.064-27.148-116.212-116.212-116.212h-129.548c-89.064 0-116.212 27.148-116.212 116.212v130.024c0 88.588 27.148 115.736 116.212 115.736h129.548c89.064 0 116.212-27.148 116.212-115.736zM785.86 476.1c0-88.588-26.672-115.736-114.307-116.212v60.487c0 127.643-59.535 187.178-187.654 187.178h-60.011c0 87.635 27.624 114.307 116.212 114.307h130.024c88.588 0 115.736-27.148 115.736-115.736zM654.884-64c-13.205 0.043-24.718 7.245-30.866 17.925l-0.092 0.173c-3.142 5.168-5.002 11.416-5.002 18.099s1.86 12.931 5.090 18.255l-0.088-0.157 50.009 83.349c6.49 9.697 17.4 15.996 29.781 15.996 19.728 0 35.721-15.993 35.721-35.721 0-6.4-1.683-12.406-4.631-17.602l0.092 0.177-12.86-21.433c132.783 31.942 229.939 149.637 230.043 290.042v0.012c0 19.728 15.993 35.721 35.721 35.721s35.721-15.993 35.721-35.721v0c-0.27-203.581-165.096-368.575-368.588-369.116h-0.052zM35.721 555.163c-19.621 0.265-35.456 16.1-35.721 35.696v0.025c0.271 203.748 165.368 368.845 369.090 369.116h0.026c13.205-0.043 24.718-7.245 30.866-17.925l0.092-0.173c3.142-5.168 5.002-11.416 5.002-18.099s-1.86-12.931-5.090-18.255l0.088 0.157-50.486-83.349c-6.49-9.697-17.4-15.996-29.781-15.996-19.728 0-35.721 15.993-35.721 35.721 0 6.4 1.683 12.406 4.631 17.602l-0.092-0.177 12.86 21.433c-132.783-31.942-229.939-149.637-230.043-290.042v-0.012c-0.265-19.621-16.1-35.456-35.696-35.721h-0.025z" />
<glyph unicode="&#xe91a;" glyph-name="premium-icon-box" horiz-adv-x="929" d="M654.884-64h-381.023c-173.842 0-273.86 100.019-273.86 273.86v476.279c0 173.842 100.019 273.86 273.86 273.86h381.023c173.842 0 273.86-100.019 273.86-273.86v-476.279c0-173.842-100.019-273.86-273.86-273.86zM273.86 888.558c-136.216 0-202.419-66.203-202.419-202.419v-476.279c0-136.216 66.203-202.419 202.419-202.419h381.023c136.216 0 202.419 66.203 202.419 202.419v476.279c0 136.216-66.203 202.419-202.419 202.419zM773.953 578.977h-95.256c-72.336 0-130.977 58.64-130.977 130.977v0 95.256c0 19.728 15.993 35.721 35.721 35.721s35.721-15.993 35.721-35.721v0-95.256c0-32.88 26.655-59.535 59.535-59.535v0h95.256c19.728 0 35.721-15.993 35.721-35.721s-15.993-35.721-35.721-35.721v0zM464.372 364.651h-190.512c-19.728 0-35.721 15.993-35.721 35.721s15.993 35.721 35.721 35.721v0h190.512c19.728 0 35.721-15.993 35.721-35.721s-15.993-35.721-35.721-35.721v0zM654.884 174.14h-381.023c-19.728 0-35.721 15.993-35.721 35.721s15.993 35.721 35.721 35.721v0h381.023c19.728 0 35.721-15.993 35.721-35.721s-15.993-35.721-35.721-35.721v0z" />
<glyph unicode="&#xe91b;" glyph-name="premium-ihover" horiz-adv-x="1023" d="M719.941-64v0c-48.019 0.090-88.613 31.778-102.103 75.375l-0.202 0.758-88.030 283.123c-3.048 9.549-4.804 20.533-4.804 31.927 0 59.918 48.573 108.491 108.491 108.491 11.394 0 22.378-1.756 32.695-5.013l-0.769 0.209 283.123-88.030c43.621-14.722 74.47-55.268 74.47-103.019s-30.849-88.297-73.705-102.794l-0.765-0.225-77.561-26.171c-10.848-3.817-19.284-12.098-23.229-22.578l-0.087-0.262-26.647-78.037c-14.23-42.997-53.958-73.515-100.849-73.755h-0.029zM630.959 364.253c-9.688-0.088-18.427-4.075-24.74-10.465l-0.003-0.004c-6.769-6.579-10.968-15.77-10.968-25.942 0-4.17 0.706-8.175 2.004-11.903l-0.077 0.254 88.030-283.123c4.112-14.931 17.569-25.716 33.544-25.716 0.419 0 0.836 0.007 1.252 0.022l-0.060-0.002c0.080-0.001 0.174-0.001 0.268-0.001 16.064 0 29.681 10.474 34.396 24.964l0.072 0.256 26.171 77.561c10.818 32.283 35.761 57.226 67.293 67.825l0.752 0.219 77.561 26.171c14.757 4.781 25.24 18.403 25.24 34.474 0 0.427-0.007 0.852-0.022 1.275l0.002-0.061c0.002 0.141 0.003 0.308 0.003 0.475 0 16.15-10.728 29.794-25.446 34.196l-0.253 0.065-285.502 88.030zM511.524-63.048c-282.507 0-511.524 229.017-511.524 511.524s229.017 511.524 511.524 511.524c282.507 0 511.524-229.017 511.524-511.524v0c0-19.71-15.978-35.688-35.688-35.688s-35.688 15.978-35.688 35.688v0c0 243.087-197.061 440.149-440.149 440.149s-440.149-197.061-440.149-440.149c0-243.087 197.061-440.149 440.149-440.149v0c19.71 0 35.688-15.978 35.688-35.688s-15.978-35.688-35.688-35.688v0z" />
<glyph unicode="&#xe91c;" glyph-name="premium-image-accordion" d="M593.455-17.455h-186.182c-153.6 0-246.225 30.72-263.447 186.182-2.711 21.685-4.258 46.78-4.258 72.238 0 3.241 0.025 6.476 0.075 9.704l-0.006-0.488v418.909c-0.049 2.774-0.077 6.046-0.077 9.325 0 25.759 1.719 51.117 5.050 75.965l-0.318-2.905c16.756 154.531 109.382 186.182 262.982 186.182h186.182c153.6 0 246.225-30.72 263.447-186.182 2.722-21.647 4.276-46.697 4.276-72.109 0-3.613-0.031-7.219-0.094-10.817l0.007 0.541v-418.909c0.052-2.845 0.081-6.2 0.081-9.562 0-25.677-1.721-50.951-5.054-75.715l0.318 2.891c-16.756-154.531-109.382-185.251-262.982-185.251zM407.273 866.909c-154.065 0-183.389-31.185-193.629-124.276-2.701-19.861-4.242-42.816-4.242-66.131 0-2.605 0.019-5.206 0.058-7.803l-0.005 0.392v-418.909c-0.023-1.911-0.036-4.169-0.036-6.43 0-23.156 1.366-45.993 4.021-68.434l-0.262 2.718c10.705-93.091 40.029-125.673 194.095-125.673h186.182c154.065 0 183.389 31.185 194.095 124.276 2.391 20.2 3.756 43.597 3.756 67.313 0 2.19-0.012 4.378-0.035 6.563l0.003-0.334v418.909c0.027 2.076 0.043 4.528 0.043 6.983 0 22.962-1.369 45.605-4.028 67.851l0.262-2.688c-10.705 93.091-40.029 125.673-194.095 125.673zM34.909 75.636c-19.175 0.259-34.65 15.734-34.909 34.885v698.207c0 19.28 15.629 34.909 34.909 34.909s34.909-15.629 34.909-34.909v0-698.182c-0.259-19.175-15.734-34.65-34.885-34.909h-0.025zM965.818 98.909c-19.175 0.259-34.65 15.734-34.909 34.885v698.207c0 19.28 15.629 34.909 34.909 34.909s34.909-15.629 34.909-34.909v0-698.182c-0.259-19.175-15.734-34.65-34.885-34.909h-0.025z" />
<glyph unicode="&#xe91d;" glyph-name="premium-image-button" d="M369.116 507.535c-72.336 0-130.977 58.64-130.977 130.977s58.64 130.977 130.977 130.977c72.336 0 130.977-58.64 130.977-130.977v0c0-72.336-58.64-130.977-130.977-130.977v0zM369.116 698.047c-32.88 0-59.535-26.655-59.535-59.535s26.655-59.535 59.535-59.535c32.88 0 59.535 26.655 59.535 59.535v0c0 32.88-26.655 59.535-59.535 59.535v0zM988.279 578.977c-19.728 0-35.721-15.993-35.721-35.721v0-107.639l-18.575 15.717c-24.431 20.113-56.038 32.309-90.493 32.309s-66.062-12.196-90.74-32.506l0.246 0.197-198.132-170.032c-11.94-9.44-27.213-15.143-43.818-15.143s-31.878 5.703-43.967 15.257l0.149-0.114-15.717 14.288c-24.464 20.212-56.146 32.471-90.691 32.471-29.173 0-56.304-8.743-78.916-23.752l0.528 0.329-196.703-132.406c-9.168 36.298-14.429 77.967-14.429 120.865 0 4.226 0.051 8.439 0.153 12.641l-0.012-0.624v285.767c0 219.565 77.633 297.674 297.674 297.674h190.512c19.728 0 35.721 15.993 35.721 35.721s-15.993 35.721-35.721 35.721v0h-190.512c-259.096 0-369.116-110.497-369.116-369.116v-285.767c-0.199-5.304-0.312-11.533-0.312-17.789 0-64.829 12.173-126.814 34.359-183.795l-1.183 3.452c1.198-3.81 2.817-7.126 4.85-10.139l-0.087 0.137c50.486-110.973 157.648-160.982 333.395-160.982h285.767c258.62 0 369.116 110.497 369.116 369.116v238.14c-0.253 19.798-16.361 35.749-36.194 35.749-0.503 0-1.005-0.010-1.503-0.031l0.071 0.002zM952.558 305.116c0-219.565-78.11-297.674-297.674-297.674h-285.767c-131.929 0-212.42 28.1-255.286 97.637l208.134 140.026c10.908 6.936 24.198 11.055 38.45 11.055 16.604 0 31.903-5.59 44.117-14.991l-0.17 0.126 16.193-14.288c24.431-20.113 56.038-32.309 90.493-32.309s66.062 12.196 90.74 32.506l-0.246-0.197 198.132 170.032c11.882 9.598 27.172 15.407 43.818 15.407s31.935-5.809 43.951-15.511l-0.133 0.104 65.25-56.201zM985.898 920.945c-19.742 22.575-48.004 37.272-79.718 39.042l-0.297 0.013c-31.67-1.575-59.654-16.141-78.943-38.438l-0.119-0.141-20.004-20.956c-3.070-2.363-5.734-5.027-8.022-7.995l-0.075-0.101-142.884-142.884c-12.469-12.624-21.275-28.892-24.679-47.064l-0.088-0.564-9.526-66.679c-0.501-3.137-0.788-6.754-0.788-10.438 0-18.697 7.38-35.671 19.385-48.168l-0.022 0.023c12.066-12.066 28.736-19.529 47.149-19.529 0.169 0 0.337 0.001 0.505 0.002h10.452l66.679 9.526c18.595 3.743 34.773 12.314 47.687 24.344l-0.059-0.054 173.366 171.46c23.355 18.747 38.178 47.293 38.178 79.3s-14.823 60.554-37.98 79.147l-0.198 0.154zM762.523 640.417c-2.529-2.145-5.558-3.785-8.882-4.722l-0.168-0.040-62.393-8.573 9.049 62.869c0.902 3.121 2.375 5.828 4.314 8.13l-0.027-0.033 111.926 111.926c15.093-23.413 34.539-42.707 57.346-57.179l0.76-0.45zM935.412 812.83l-8.573-7.62c-25.38 12.026-45.407 31.898-57.317 56.44l-0.313 0.714 8.573 8.573c6.958 8.941 16.881 15.288 28.273 17.571l0.304 0.051c11.98-2.652 22.156-9.105 29.456-18.007l0.073-0.092c24.29-24.767 21.433-35.721-0.476-57.63z" />
<glyph unicode="&#xe91e;" glyph-name="premium-image-compare" d="M1024 590.884v-285.767c0-258.62-110.497-369.116-369.116-369.116h-285.767c-1.885-0.020-4.113-0.031-6.343-0.031-34.066 0-67.523 2.609-100.181 7.637l3.647-0.462c-16.607 3.289-28.954 17.74-28.954 35.074 0 19.728 15.993 35.721 35.721 35.721 1.645 0 3.263-0.111 4.849-0.326l-0.185 0.021c25.133-3.975 54.115-6.246 83.627-6.246 2.749 0 5.494 0.020 8.234 0.059l-0.415-0.005h285.767c219.565 0 297.674 78.11 297.674 297.674v78.11l-67.155 67.632c-10.755 10.664-25.564 17.253-41.913 17.253s-31.158-6.589-41.917-17.257l-238.136-238.136c-13.154-12.993-31.24-21.018-51.2-21.018s-38.046 8.025-51.207 21.025l0.007-0.007c-5.94 6.362-9.587 14.931-9.587 24.352 0 19.728 15.993 35.721 35.721 35.721 9.421 0 17.99-3.647 24.373-9.606l-0.021 0.019 238.14 238.14c23.68 23.573 56.337 38.146 92.398 38.146s68.718-14.573 92.403-38.151l16.665-16.665v106.21c0 15.717 0 31.434 0 47.628-0.054 0.735-0.084 1.591-0.084 2.455 0 18.92 14.709 34.404 33.316 35.641l0.108 0.006c0.602 0.036 1.305 0.056 2.014 0.056 19.005 0 34.589-14.647 36.080-33.268l0.008-0.127c0.953-18.099 1.429-34.768 1.429-52.391zM321.488 507.535c-72.336 0-130.977 58.64-130.977 130.977s58.64 130.977 130.977 130.977c72.336 0 130.977-58.64 130.977-130.977v0c0-72.336-58.64-130.977-130.977-130.977v0zM321.488 698.047c-32.88 0-59.535-26.655-59.535-59.535s26.655-59.535 59.535-59.535c32.88 0 59.535 26.655 59.535 59.535v0c0 32.88-26.655 59.535-59.535 59.535v0zM1012.093 948.093c-6.29 5.645-14.649 9.096-23.814 9.096s-17.524-3.451-23.847-9.126l0.033 0.029-55.725-52.867c-62.775 41.361-139.765 65.98-222.506 65.98-11.034 0-21.966-0.438-32.778-1.297l1.427 0.091h-285.767c-258.62 0-369.116-110.497-369.116-369.116v-285.767c-0.713-9.086-1.12-19.674-1.12-30.357 0-83.059 24.579-160.377 66.861-225.077l-0.967 1.578-52.867-55.725c-5.645-6.29-9.096-14.649-9.096-23.814s3.451-17.524 9.126-23.847l-0.029 0.033c6.29-5.645 14.649-9.096 23.814-9.096s17.524 3.451 23.847 9.126l-0.033-0.029 952.558 952.558c5.645 6.29 9.096 14.649 9.096 23.814s-3.451 17.524-9.126 23.847l0.029-0.033zM116.212 102.698c-28.722 51.1-45.64 112.164-45.64 177.179 0 8.881 0.316 17.689 0.936 26.412l-0.067-1.172v285.767c0 219.565 78.11 297.674 297.674 297.674h285.767c7.781 0.585 16.854 0.918 26.005 0.918 64.868 0 125.822-16.755 178.772-46.172l-1.883 0.96z" />
<glyph unicode="&#xe91f;" glyph-name="premium-image-hotspots" d="M369.116 507.535c-72.336 0-130.977 58.64-130.977 130.977s58.64 130.977 130.977 130.977c72.336 0 130.977-58.64 130.977-130.977v0c0-72.336-58.64-130.977-130.977-130.977v0zM369.116 698.047c-32.88 0-59.535-26.655-59.535-59.535s26.655-59.535 59.535-59.535c32.88 0 59.535 26.655 59.535 59.535v0c0 32.88-26.655 59.535-59.535 59.535v0zM988.279 578.977c-19.621-0.265-35.456-16.1-35.721-35.696v-107.664l-18.575 15.717c-24.431 20.113-56.038 32.309-90.493 32.309s-66.062-12.196-90.74-32.506l0.246 0.197-198.132-170.032c-11.841-9.482-27.041-15.217-43.58-15.217s-31.738 5.735-43.718 15.324l0.139-0.107-16.193 14.288c-24.464 20.212-56.146 32.471-90.691 32.471-29.173 0-56.304-8.743-78.916-23.752l0.528 0.329-196.703-132.406c-9.168 36.298-14.429 77.967-14.429 120.865 0 4.226 0.051 8.439 0.153 12.641l-0.012-0.624v285.767c0 219.565 78.11 297.674 297.674 297.674h190.512c19.728 0 35.721 15.993 35.721 35.721s-15.993 35.721-35.721 35.721v0h-190.512c-258.62 0-369.116-110.497-369.116-369.116v-285.767c0-258.62 110.497-369.116 369.116-369.116h285.767c258.62 0 369.116 110.497 369.116 369.116v238.14c-0.265 19.621-16.1 35.456-35.696 35.721h-0.025zM952.558 305.116c0-219.565-78.11-297.674-297.674-297.674h-285.767c-131.453 0-212.42 28.1-255.286 97.637l208.61 140.026c10.831 6.961 24.054 11.097 38.242 11.097 16.523 0 31.736-5.609 43.839-15.027l-0.16 0.12 16.193-14.288c24.431-20.113 56.038-32.309 90.493-32.309s66.062 12.196 90.74 32.506l-0.246-0.197 198.132 170.032c11.882 9.598 27.172 15.407 43.818 15.407s31.935-5.809 43.951-15.511l-0.133 0.104 65.25-56.201zM988.279 781.395c-0.265-19.621-16.1-35.456-35.696-35.721h-95.281v-95.256c0-19.728-15.993-35.721-35.721-35.721s-35.721 15.993-35.721 35.721v0 95.256h-95.256c-19.728 0-35.721 15.993-35.721 35.721s15.993 35.721 35.721 35.721v0h95.256v95.256c0 19.728 15.993 35.721 35.721 35.721s35.721-15.993 35.721-35.721v0-95.256h95.256c19.621-0.265 35.456-16.1 35.721-35.696v-0.025z" />
<glyph unicode="&#xe920;" glyph-name="premium-image-layers" horiz-adv-x="1073" d="M1036.488 786.17c-40.96 66.435-114.888 109.893-232.273 137.366l-83.419 19.481c-112.89 26.474-270.736 42.958-359.149-117.385-12.987-2.997-27.473-7.493-44.956-12.987l-78.923-25.475c-110.392-35.965-175.828-84.418-212.792-151.852s-33.467-149.854 2.498-262.743l63.938-199.805c52.948-162.341 134.369-239.266 262.743-239.266 54.122 1.572 105.419 11.509 153.345 28.556l-3.492-1.083 78.423 25.975c44.407 13.243 82.993 30.234 118.89 51.31l-2.504-1.359c4.030-0.238 8.742-0.374 13.487-0.374s9.457 0.136 14.134 0.404l-0.647-0.030c149.854 0 237.268 86.416 279.727 268.738l49.951 208.796c28.472 120.382 21.979 205.799-18.981 271.735zM561.452 60.379l-78.923-25.475c-178.326-57.444-262.244-14.985-320.187 163.34l-63.938 197.307c-29.471 91.411-31.469 156.847-6.494 205.799s78.423 84.917 169.834 114.388l63.938 20.98-2.997-10.989c-2.997-10.989-5.994-21.979-8.991-34.466l-49.951-209.296c-53.947-229.776 21.479-349.659 249.756-406.103l52.449-12.488zM983.54 534.416l-49.951-208.796c-37.963-163.84-105.897-222.782-241.264-209.296l-35.965 4.496c-12.488 0-25.975 4.496-39.461 7.992l-83.918 19.98c-188.816 44.956-239.766 127.875-195.809 316.191l49.951 207.797c4.995 20.98 10.49 39.961 15.984 56.944 5.933 18 12.020 32.869 18.979 47.236l-0.996-2.28c26.157 64.277 88.142 108.765 160.518 108.765 3.981 0 7.93-0.135 11.844-0.399l-0.53 0.029c39.557-0.783 77.489-6.202 113.753-15.736l-3.361 0.751 83.419-19.481c96.905-22.478 155.848-55.446 185.819-103.899 16.066-26.969 25.563-59.472 25.563-94.192 0-2.008-0.032-4.009-0.095-6.001l0.007 0.291c-0.676-39.5-5.919-77.456-15.223-113.787l0.737 3.395z" />
<glyph unicode="&#xe921;" glyph-name="premium-image-scroll" d="M369.116 507.535c-72.336 0-130.977 58.64-130.977 130.977s58.64 130.977 130.977 130.977c72.336 0 130.977-58.64 130.977-130.977v0c0-72.336-58.64-130.977-130.977-130.977v0zM369.116 698.047c-32.88 0-59.535-26.655-59.535-59.535s26.655-59.535 59.535-59.535c32.88 0 59.535 26.655 59.535 59.535v0c0 32.88-26.655 59.535-59.535 59.535v0zM988.279 578.977c-19.621-0.265-35.456-16.1-35.721-35.696v-107.664l-18.575 15.717c-24.431 20.113-56.038 32.309-90.493 32.309s-66.062-12.196-90.74-32.506l0.246 0.197-198.132-170.032c-11.841-9.482-27.041-15.217-43.58-15.217s-31.738 5.735-43.718 15.324l0.139-0.107-16.193 14.288c-24.464 20.212-56.146 32.471-90.691 32.471-29.173 0-56.304-8.743-78.916-23.752l0.528 0.329-196.703-132.406c-9.168 36.298-14.429 77.967-14.429 120.865 0 4.226 0.051 8.439 0.153 12.641l-0.012-0.624v285.767c0 219.565 78.11 297.674 297.674 297.674h190.512c19.728 0 35.721 15.993 35.721 35.721s-15.993 35.721-35.721 35.721v0h-190.512c-258.62 0-369.116-110.497-369.116-369.116v-285.767c0-258.62 110.497-369.116 369.116-369.116h285.767c258.62 0 369.116 110.497 369.116 369.116v238.14c-0.265 19.621-16.1 35.456-35.696 35.721h-0.025zM952.558 305.116c0-219.565-78.11-297.674-297.674-297.674h-285.767c-131.453 0-212.42 28.1-255.286 97.637l208.61 140.026c10.831 6.961 24.054 11.097 38.242 11.097 16.523 0 31.736-5.609 43.839-15.027l-0.16 0.12 16.193-14.288c24.431-20.113 56.038-32.309 90.493-32.309s66.062 12.196 90.74 32.506l-0.246-0.197 198.132 170.032c11.882 9.598 27.172 15.407 43.818 15.407s31.935-5.809 43.951-15.511l-0.133 0.104 65.25-56.201zM916.837 709.953l-95.256-95.256c-6.393-6.471-15.267-10.479-25.076-10.479-0.059 0-0.117 0-0.175 0h0.009c-0.032 0-0.069 0-0.107 0-4.957 0-9.669 1.052-13.924 2.945l0.218-0.087c-2.929 1.024-5.459 2.48-7.659 4.318l0.039-0.031-0.953 3.334-95.256 95.256c-12.12 5.886-20.326 18.101-20.326 32.233 0 19.728 15.993 35.721 35.721 35.721 14.132 0 26.348-8.207 32.14-20.114l0.093-0.212 34.292-34.292v200.99c0 19.728 15.993 35.721 35.721 35.721s35.721-15.993 35.721-35.721v0-199.561l37.15 32.863c4.503 2.201 9.799 3.487 15.394 3.487 19.728 0 35.721-15.993 35.721-35.721 0-5.596-1.287-10.891-3.581-15.606l0.093 0.212z" />
<glyph unicode="&#xe922;" glyph-name="premium-image-separator" d="M815.39-64h-607.732c-114.592 0.125-207.438 93.049-207.438 207.658 0 34.042 8.191 66.17 22.71 94.522l-0.545-1.172 81.92 163.84c20.857 48.633 64.849 83.778 117.746 91.816l0.847 0.106c2.534 0.149 5.497 0.235 8.481 0.235 51.594 0 97.237-25.477 125.035-64.537l0.319-0.471 10.478-13.812c15.156-22.382 40.386-36.949 69.030-37.15h0.031c27.757 4.742 50.474 22.736 61.704 47.113l0.213 0.515 90.017 162.887c37.15 67.155 87.159 102.876 142.884 99.542s99.066-42.865 129.072-113.354l149.075-348.16c10.645-24.152 16.842-52.313 16.842-81.92 0-114.579-92.798-207.484-207.337-207.657h-0.017zM235.758 424.186h-5.715c-28.536-6.293-51.369-26.139-61.714-52.287l-0.202-0.58-81.92-166.221c-9.231-17.882-14.643-39.029-14.643-61.44 0-75.187 60.917-136.147 136.088-136.216h607.739c0.026 0 0.056 0 0.087 0 75.493 0 136.692 61.199 136.692 136.692 0 19.449-4.062 37.95-11.384 54.7l0.343-0.88-149.075 347.684c-18.099 42.865-43.341 69.060-65.727 69.060s-51.914-22.385-74.3-62.869l-91.446-160.982c-22.88-46.074-67.062-78.561-119.304-84.709l-0.718-0.069c-1.901-0.084-4.132-0.132-6.373-0.132-51.139 0-96.431 25.030-124.295 63.507l-0.308 0.447-10.954 13.812c-13.819 21.648-36.277 36.735-62.399 40.429l-0.47 0.054zM273.384 602.791c-98.641 0-178.605 79.964-178.605 178.605s79.964 178.605 178.605 178.605c98.641 0 178.605-79.964 178.605-178.605v0c0-98.641-79.964-178.605-178.605-178.605v0zM273.384 888.558c-59.184 0-107.163-47.978-107.163-107.163s47.978-107.163 107.163-107.163c59.184 0 107.163 47.978 107.163 107.163v0c0 59.184-47.978 107.163-107.163 107.163v0z" />
<glyph unicode="&#xe923;" glyph-name="premium-instagram-feed" d="M654.884-64h-285.767c-258.62 0-369.116 110.497-369.116 369.116v285.767c0 258.62 110.497 369.116 369.116 369.116h285.767c258.62 0 369.116-110.497 369.116-369.116v-285.767c0-258.62-110.497-369.116-369.116-369.116zM369.116 888.558c-219.565 0-297.674-78.11-297.674-297.674v-285.767c0-219.565 78.11-297.674 297.674-297.674h285.767c219.565 0 297.674 78.11 297.674 297.674v285.767c0 219.565-78.11 297.674-297.674 297.674zM512 245.581c-111.793 0-202.419 90.626-202.419 202.419s90.626 202.419 202.419 202.419c111.793 0 202.419-90.626 202.419-202.419v0c-0.27-111.684-90.735-202.148-202.392-202.419h-0.026zM512 578.977c-72.336 0-130.977-58.64-130.977-130.977s58.64-130.977 130.977-130.977c72.336 0 130.977 58.64 130.977 130.977v0c0 72.336-58.64 130.977-130.977 130.977v0zM781.098 638.512c-26.304 0-47.628 21.324-47.628 47.628s21.324 47.628 47.628 47.628v0 0c26.304 0 47.628-21.324 47.628-47.628s-21.324-47.628-47.628-47.628v0z" />
<glyph unicode="&#xe924;" glyph-name="premium-ken-burns" d="M654.884-64h-47.628c-19.728 0-35.721 15.993-35.721 35.721s15.993 35.721 35.721 35.721v0h47.628c219.565 0 297.674 78.11 297.674 297.674v285.767c0 219.565-78.11 297.674-297.674 297.674h-285.767c-219.565 0-297.674-78.11-297.674-297.674v-47.628c0-19.728-15.993-35.721-35.721-35.721s-35.721 15.993-35.721 35.721v0 47.628c0 258.62 110.497 369.116 369.116 369.116h285.767c258.62 0 369.116-110.497 369.116-369.116v-285.767c0-258.62-110.497-369.116-369.116-369.116zM833.965 734.72v-190.512c0-19.728-15.993-35.721-35.721-35.721s-35.721 15.993-35.721 35.721v0 104.305l-179.081-176.7c-6.29-5.645-14.649-9.096-23.814-9.096s-17.524 3.451-23.847 9.126l0.033-0.029c-5.645 6.29-9.096 14.649-9.096 23.814s3.451 17.524 9.126 23.847l-0.029-0.033 176.223 179.557h-104.781c-19.728 0-35.721 15.993-35.721 35.721s15.993 35.721 35.721 35.721v0h203.371c5.242-2.095 9.693-5.17 13.318-9.030l0.018-0.019 2.381-3.334c4.786-5.671 7.695-13.061 7.695-21.131 0-0.776-0.027-1.546-0.080-2.309l0.006 0.103zM314.344-64h-128.595c-126.69 0-185.749 59.059-185.749 185.749v128.595c0 126.69 59.059 185.749 185.749 185.749h128.595c126.69 0 185.749-59.059 185.749-185.749v-128.595c0-126.214-59.535-185.749-185.749-185.749zM185.749 364.651c-87.635 0-114.307-26.672-114.307-114.307v-128.595c0-87.635 26.672-114.307 114.307-114.307h128.595c87.635 0 114.307 26.672 114.307 114.307v128.595c0 87.635-26.672 114.307-114.307 114.307z" />
<glyph unicode="&#xe925;" glyph-name="premium-lottie-animations" d="M654.884 960h-285.767c-258.62 0-369.116-110.497-369.116-369.116v-285.767c0-258.62 110.497-369.116 369.116-369.116h285.767c258.62 0 369.116 110.497 369.116 369.116v285.767c0 258.62-110.497 369.116-369.116 369.116zM952.558 305.116c0-219.565-78.11-297.674-297.674-297.674h-285.767c-219.565 0-297.674 78.11-297.674 297.674v285.767c0 219.565 78.11 297.674 297.674 297.674h285.767c219.565 0 297.674-78.11 297.674-297.674zM702.988 650.419c-126.69 0-173.366-90.017-210.992-162.411l-24.29-47.628c-40.007-76.681-70.013-123.356-146.694-123.356-9.997-0.092-19.048-4.068-25.732-10.49l0.013 0.012c-6.51-6.615-10.53-15.697-10.53-25.719s4.020-19.104 10.535-25.724l-0.005 0.005h2.381c6.459-6.466 15.382-10.469 25.241-10.478h0.002c126.69 0 173.366 90.017 210.992 162.411l24.29 47.628c40.007 76.681 70.013 123.356 146.694 123.356 8.457 0.997 15.876 4.815 21.427 10.473l0.006 0.006c7.625 6.296 12.538 15.641 12.858 26.142l0.001 0.053c0 19.991-16.206 36.197-36.197 36.197v0z" />
<glyph unicode="&#xe926;" glyph-name="premium-magic-scroll" d="M706.56-84.48c-29.927 1.257-57.408 10.73-80.537 26.201l0.568-0.357-109.227 64.853c-5.15 2.432-11.186 3.851-17.554 3.851s-12.405-1.419-17.811-3.959l0.256 0.108-109.227-64.853c-69.242-40.96-111.177-24.381-129.707-10.24s-48.762 48.762-29.745 126.781l25.844 111.665c0.142 1.339 0.223 2.893 0.223 4.466 0 10.724-3.763 20.569-10.040 28.287l0.065-0.082-90.21 91.185c-25.068 20.986-40.897 52.292-40.897 87.296 0 8.987 1.043 17.729 3.015 26.114l-0.153-0.77c16.562 39.131 53.537 66.623 97.213 69.227l0.31 0.015 116.541 19.505c9.768 2.756 17.962 8.421 23.816 15.987l0.078 0.104 64.366 128.731c15.823 40.264 52.96 68.898 97.153 72.146l0.371 0.022c44.563-3.269 81.701-31.904 97.257-71.4l0.266-0.767 61.44-128.731c5.751-8.681 14.162-15.198 24.057-18.438l0.324-0.092 117.029-19.505c44.346-1.953 81.692-29.949 97.263-68.989l0.261-0.741c2.089-7.985 3.288-17.152 3.288-26.598 0-34.56-16.050-65.371-41.104-85.385l-0.219-0.169-93.135-88.259c-5.923-7.531-9.499-17.15-9.499-27.605 0-1.612 0.085-3.205 0.251-4.773l-0.017 0.195 25.844-112.64c18.042-78.507-10.728-113.128-29.745-126.781-13.316-9.752-30.022-15.604-48.094-15.604-0.063 0-0.126 0-0.19 0h0.010zM499.81 82.773c0.509 0.009 1.109 0.013 1.71 0.013 19.417 0 37.651-5.067 53.452-13.95l-0.549 0.284 109.227-64.853c28.77-17.067 45.836-17.067 48.762-14.141s8.777 19.017 0 51.2l-25.844 112.64c-0.963 5.592-1.513 12.033-1.513 18.602 0 32.015 13.073 60.977 34.173 81.837l90.708 90.708c18.042 18.042 21.943 31.695 19.992 38.034s-13.653 15.604-39.010 19.992l-116.053 19.505c-34.172 6.972-62.3 28.379-78.207 57.43l-0.299 0.597-65.829 127.756c-11.215 21.943-23.406 31.695-30.72 31.695s-19.505-9.752-30.72-31.695l-64.366-128.731c-15.805-28.644-42.732-49.506-74.809-56.902l-0.772-0.15-117.029-19.505c-24.869-3.901-36.084-13.166-38.522-19.505s0-20.48 19.992-38.522l86.796-90.697c19.099-20.623 30.815-48.322 30.815-78.758 0-7.672-0.744-15.17-2.165-22.426l0.12 0.734-25.844-112.64c-7.314-32.183-2.438-48.762 0-51.2s20.968-2.926 48.762 14.141l109.227 64.853c15.228 8.681 33.461 13.8 52.889 13.8 1.979 0 3.945-0.053 5.898-0.158l-0.272 0.012zM207.238 545.524c-20.088 0.271-36.3 16.484-36.571 36.546v341.359c0 20.198 16.374 36.571 36.571 36.571s36.571-16.374 36.571-36.571v0-341.333c-0.271-20.088-16.484-36.3-36.546-36.571h-0.026zM792.381 545.524c-20.088 0.271-36.3 16.484-36.571 36.546v341.359c0 20.198 16.374 36.571 36.571 36.571s36.571-16.374 36.571-36.571v0-341.333c-0.271-20.088-16.484-36.3-36.546-36.571h-0.026zM499.81 789.333c-20.088 0.271-36.3 16.484-36.571 36.546v97.55c0 20.198 16.374 36.571 36.571 36.571s36.571-16.374 36.571-36.571v0-97.524c-0.271-20.088-16.484-36.3-36.546-36.571h-0.026z" />
<glyph unicode="&#xe927;" glyph-name="premium-magic-section" horiz-adv-x="1015" d="M555.341-52.093c-28.577 0-72.394 13.812-115.26 83.349l-83.825 135.263c-10.946 14.727-28.123 24.292-47.553 24.765l-0.075 0.001-158.601-8.097c-95.256-4.763-128.595 34.768-142.884 58.582s-21.909 75.252 39.531 147.17l95.256 109.544c7.381 10.429 11.799 23.41 11.799 37.424 0 4.624-0.481 9.135-1.395 13.487l0.075-0.425-47.628 153.838c-7.025 15.256-11.121 33.102-11.121 51.906 0 32.659 12.358 62.432 32.652 84.897l-0.098-0.111c22.047 19.063 50.995 30.677 82.655 30.677 19.628 0 38.214-4.464 54.797-12.431l-0.76 0.329 142.884-47.628c4.362-1.009 9.371-1.587 14.515-1.587 12.175 0 23.593 3.24 33.439 8.904l-0.326-0.173 144.313 107.639c22.424 21.046 52.683 33.974 85.962 33.974 18.726 0 36.497-4.094 52.465-11.435l-0.782 0.322c36.555-22.541 60.555-62.363 60.555-107.791 0-6.839-0.544-13.552-1.591-20.096l0.095 0.72-3.334-180.51c1.484-17.183 9.233-32.316 20.922-43.309l0.035-0.032 118.593-89.54c37.995-22.346 63.094-63.027 63.094-109.571 0-4.688-0.255-9.316-0.751-13.872l0.050 0.564c-4.287-25.243-23.338-70.966-100.495-95.256l-153.838-47.628c-16.42-7.226-29.115-20.386-35.564-36.698l-0.157-0.452-36.673-140.502c-24.29-91.922-71.918-112.402-98.59-116.212zM309.581 262.727c44.579-1.246 83.547-24.183 106.863-58.59l0.299-0.468 83.825-135.263c24.29-39.055 47.628-50.962 56.677-47.628s28.1 19.527 40.007 63.821l36.673 140.026c12.583 41.025 43.228 73.078 82.418 87.339l0.931 0.296 153.838 47.628c29.529 9.049 47.628 23.814 51.438 39.055s-10.478 35.245-35.245 53.82l-118.117 88.112c-28.687 24.734-46.936 60.893-47.626 101.328l-0.002 0.119v180.51c0 31.911-7.144 55.248-20.48 62.393s-37.626 0-63.345-18.575l-145.265-105.258c-20.884-14.033-46.596-22.397-74.261-22.397-13.248 0-26.049 1.918-38.139 5.492l0.95-0.241-140.502 47.628c-9.312 5.040-20.384 8.002-32.149 8.002s-22.837-2.962-32.513-8.181l0.364 0.18c-10.954-10.954-11.907-35.245-2.858-64.774l47.628-153.838c3.557-11.472 5.606-24.661 5.606-38.328 0-31.533-10.906-60.52-29.151-83.393l0.208 0.27-95.256-109.544c-29.529-34.768-34.292-58.582-29.529-69.060s26.672-20.48 72.871-18.575l159.077 8.097zM978.753-64c-0.049 0-0.108 0-0.166 0-9.81 0-18.683 4.008-25.073 10.475l-142.887 142.887c-7.004 6.539-11.369 15.827-11.369 26.134 0 19.728 15.993 35.721 35.721 35.721 10.307 0 19.595-4.366 26.115-11.348l0.019-0.021 142.884-142.884c6.572-6.408 10.648-15.35 10.648-25.243s-4.076-18.834-10.641-25.236l-0.007-0.007c-6.171-6.466-14.856-10.487-24.48-10.487-0.268 0-0.536 0.003-0.803 0.009l0.040-0.001z" />
<glyph unicode="&#xe928;" glyph-name="premium-media-grid" d="M882.069 364.651h-190.512c-95.256 0-142.884 44.294-142.884 135.74v323.87c0 91.446 47.628 135.74 142.884 135.74h190.512c95.256 0 142.884-44.294 142.884-135.74v-323.87c-0.953-91.446-47.152-135.74-142.884-135.74zM691.557 888.558c-60.011 0-70.489-16.67-70.489-64.298v-323.87c0-47.628 10.478-64.298 70.489-64.298h190.512c60.011 0 70.489 16.67 70.489 64.298v323.87c0 47.628-10.478 64.298-70.489 64.298zM882.069-64h-190.512c-95.256 0-142.884 44.294-142.884 135.74v85.73c0 91.446 47.628 135.74 142.884 135.74h190.512c95.256 0 142.884-44.294 142.884-135.74v-85.73c-0.953-91.446-47.152-135.74-142.884-135.74zM691.557 221.767c-60.011 0-70.489-16.67-70.489-64.298v-85.73c0-47.628 10.478-64.298 70.489-64.298h190.512c60.011 0 70.489 16.67 70.489 64.298v85.73c0 47.628-10.478 64.298-70.489 64.298zM334.348-64h-190.512c-95.256 0-142.884 44.294-142.884 135.74v323.87c0 91.446 47.628 135.74 142.884 135.74h190.512c95.256 0 142.884-44.294 142.884-135.74v-323.87c-0.953-91.446-47.152-135.74-142.884-135.74zM143.836 459.907c-60.011 0-70.489-16.67-70.489-64.298v-323.87c0-47.628 10.478-64.298 70.489-64.298h190.512c60.011 0 70.489 16.67 70.489 64.298v323.87c0 47.628-10.478 64.298-70.489 64.298zM334.348 602.791h-190.512c-95.256 0-142.884 44.294-142.884 135.74v85.73c0 91.446 47.628 135.74 142.884 135.74h190.512c95.256 0 142.884-44.294 142.884-135.74v-85.73c-0.953-91.446-47.152-135.74-142.884-135.74zM143.836 888.558c-60.011 0-70.489-16.67-70.489-64.298v-85.73c0-47.628 10.478-64.298 70.489-64.298h190.512c60.011 0 70.489 16.67 70.489 64.298v85.73c0 47.628-10.478 64.298-70.489 64.298z" />
<glyph unicode="&#xe929;" glyph-name="premium-mega-menu" d="M882.069 483.721h-190.512c-95.256 0-142.884 47.628-142.884 142.884v190.512c0 95.256 47.628 142.884 142.884 142.884h190.512c95.256 0 142.884-47.628 142.884-142.884v-190.512c-0.953-96.685-47.152-142.884-142.884-142.884zM691.557 888.558c-56.201 0-70.489-14.288-70.489-70.489v-190.512c0-56.201 14.288-70.489 70.489-70.489h190.512c56.201 0 70.489 14.288 70.489 70.489v190.512c0 56.201-14.288 70.489-70.489 70.489zM336.253 484.197h-194.322c-95.256 0-142.884 42.389-142.884 130.024v215.754c0 87.635 47.628 130.024 142.884 130.024h190.512c95.256 0 142.884-42.389 142.884-130.024v-215.278c0.257-3.011 0.403-6.517 0.403-10.056 0-32.913-12.646-62.873-33.344-85.285l0.078 0.085c-25.056-22.18-58.203-35.724-94.513-35.724-4.117 0-8.194 0.174-12.223 0.516l0.526-0.036zM141.931 888.558c-63.345 0-70.489-18.575-70.489-58.582v-215.278c0-40.96 6.668-58.582 70.489-58.582h190.512c4.614-0.848 9.924-1.332 15.347-1.332 16.644 0 32.221 4.565 45.548 12.512l-0.408-0.225c7.896 10.449 12.646 23.658 12.646 37.977 0 3.406-0.269 6.75-0.787 10.011l0.047-0.36v215.278c0 40.007-7.144 58.582-70.489 58.582zM334.348-64h-190.512c-95.256 0-142.884 47.628-142.884 142.884v190.512c0 95.256 47.628 142.884 142.884 142.884h190.512c95.256 0 142.884-47.628 142.884-142.884v-190.512c-0.953-96.685-47.152-142.884-142.884-142.884zM143.836 340.837c-56.201 0-70.489-14.288-70.489-70.489v-190.512c0-56.201 14.288-70.489 70.489-70.489h190.512c56.201 0 70.489 14.288 70.489 70.489v190.512c0 56.201-14.288 70.489-70.489 70.489zM940.651 245.581h-285.767c-19.728 0-35.721 15.993-35.721 35.721s15.993 35.721 35.721 35.721v0h285.767c19.728 0 35.721-15.993 35.721-35.721s-15.993-35.721-35.721-35.721v0zM940.651 55.070h-285.767c-19.728 0-35.721 15.993-35.721 35.721s15.993 35.721 35.721 35.721v0h285.767c19.728 0 35.721-15.993 35.721-35.721s-15.993-35.721-35.721-35.721v0z" />
<glyph unicode="&#xe92a;" glyph-name="premium-messenger-chat" d="M211.944-64c-0.143-0.002-0.311-0.003-0.48-0.003-19.465 0-35.245 15.78-35.245 35.245 0 0.169 0.001 0.337 0.004 0.505v-0.025 153.838c-107.554 82.346-176.224 210.8-176.224 355.293 0 0.171 0 0.343 0 0.514v-0.027c0 263.859 229.567 476.279 512 476.279s512-212.42 512-476.279-229.567-473.898-512-473.898c-3.173-0.071-6.911-0.111-10.659-0.111-45.468 0-89.547 5.949-131.5 17.111l3.561-0.806-142.884-82.873c-4.869-3.012-10.774-4.796-17.095-4.796-0.521 0-1.038 0.012-1.553 0.036l0.073-0.003zM512 888.558c-242.902 0-440.558-182.891-440.558-407.219 0.746-127.551 64.049-240.159 160.754-308.786l1.18-0.795c8.71-6.492 14.289-16.763 14.289-28.338 0-0.084 0-0.168-0.001-0.251v0.013-109.544l103.829 57.153c5.017 3.040 11.081 4.84 17.564 4.84 4.119 0 8.069-0.726 11.727-2.058l-0.238 0.076c35.776-10.988 76.901-17.316 119.503-17.316 4.202 0 8.39 0.062 12.562 0.184l-0.612-0.014c242.902 0 440.558 182.415 440.558 407.219s-197.656 404.837-440.558 404.837zM297.674 328.93c-19.6 0.169-35.423 16.096-35.423 35.72 0 8.723 3.127 16.716 8.32 22.919l-0.046-0.056 180.986 214.326c6.393 9.642 17.199 15.912 29.469 15.912 5.196 0 10.129-1.124 14.569-3.143l-0.221 0.090 68.584-36.197 153.362 36.197c2.669 0.715 5.734 1.125 8.895 1.125 19.728 0 35.721-15.993 35.721-35.721 0-8.802-3.183-16.86-8.461-23.086l0.043 0.052-180.986-214.326c-6.508-8.354-16.57-13.676-27.875-13.676-7.372 0-14.216 2.264-19.874 6.134l0.121-0.078-58.582 35.245-161.935-39.531zM473.898 443.237c6.867-0.11 13.26-2.043 18.745-5.334l-0.171 0.095 45.247-27.148 89.064 108.592-58.106-15.241c-2.519-0.609-5.411-0.958-8.384-0.958-6.341 0-12.311 1.589-17.534 4.39l0.199-0.097-54.772 28.577-91.446-108.592 69.537 17.146z" />
<glyph unicode="&#xe92b;" glyph-name="premium-modal-box" d="M954.94 722.337c5.94-6.362 9.587-14.931 9.587-24.352 0-19.728-15.993-35.721-35.721-35.721-9.421 0-17.99 3.647-24.373 9.606l0.021-0.019-59.059 59.059-59.059-59.059c-6.362-5.94-14.931-9.587-24.352-9.587-19.728 0-35.721 15.993-35.721 35.721 0 9.421 3.647 17.99 9.606 24.373l-0.019-0.021 59.059 59.059-59.059 59.059c-6.455 6.463-10.447 15.387-10.447 25.243s3.992 18.78 10.447 25.243v0c6.463 6.455 15.387 10.447 25.243 10.447s18.78-3.992 25.243-10.447v0l59.059-59.059 59.059 59.059c6.463 6.455 15.387 10.447 25.243 10.447s18.78-3.992 25.243-10.447v0c6.455-6.463 10.447-15.387 10.447-25.243s-3.992-18.78-10.447-25.243v0l-59.059-59.059zM273.86 555.163c-19.621-0.265-35.456-16.1-35.721-35.696v-142.909c0-19.728 15.993-35.721 35.721-35.721s35.721 15.993 35.721 35.721v0 142.884c-0.265 19.621-16.1 35.456-35.696 35.721h-0.025zM512 555.163c-19.621-0.265-35.456-16.1-35.721-35.696v-142.909c0-19.728 15.993-35.721 35.721-35.721s35.721 15.993 35.721 35.721v0 142.884c-0.265 19.621-16.1 35.456-35.696 35.721h-0.025zM750.14 555.163c-19.621-0.265-35.456-16.1-35.721-35.696v-142.909c0-19.728 15.993-35.721 35.721-35.721s35.721 15.993 35.721 35.721v0 142.884c-0.265 19.621-16.1 35.456-35.696 35.721h-0.025zM559.628 960h-190.512c-258.62 0-369.116-110.497-369.116-369.116v-285.767c0-258.62 110.497-369.116 369.116-369.116h285.767c258.62 0 369.116 110.497 369.116 369.116v190.512c0 19.728-15.993 35.721-35.721 35.721s-35.721-15.993-35.721-35.721v0-190.512c0-219.565-78.11-297.674-297.674-297.674h-285.767c-219.565 0-297.674 78.11-297.674 297.674v285.767c0 219.565 78.11 297.674 297.674 297.674h190.512c19.728 0 35.721 15.993 35.721 35.721s-15.993 35.721-35.721 35.721v0z" />
<glyph unicode="&#xe92c;" glyph-name="premium-multi-scroll" d="M472.064 704c-6.947-6.939-16.541-11.23-27.136-11.23s-20.189 4.291-27.136 11.231v0l-123.904 124.928v-828.928c0-21.208-17.192-38.4-38.4-38.4s-38.4 17.192-38.4 38.4v0 828.928l-128-124.928c-6.95-10.603-18.779-17.51-32.22-17.51-21.208 0-38.4 17.192-38.4 38.4 0 14.228 7.738 26.648 19.235 33.283l0.186 0.099 189.44 188.928c3.453 3.377 7.526 6.138 12.030 8.092l0.258 0.1c4.375 1.944 9.479 3.076 14.848 3.076s10.473-1.132 15.087-3.17l-0.239 0.094c4.762-2.054 8.835-4.815 12.295-8.199l190.457-190.457c6.493-6.862 10.484-16.149 10.484-26.368s-3.992-19.506-10.501-26.386l0.017 0.018zM1010.688 163.328l-189.44-188.928c-3.453-3.377-7.526-6.138-12.030-8.092l-0.258-0.1c-4.375-1.944-9.479-3.076-14.848-3.076s-10.473 1.132-15.087 3.17l0.239-0.094c-4.762 2.054-8.835 4.815-12.295 8.199l-190.457 190.457c-6.386 6.839-10.306 16.051-10.306 26.178 0 21.208 17.192 38.4 38.4 38.4 10.127 0 19.339-3.921 26.2-10.327l-0.022 0.021 123.904-126.464v828.928c0 21.208 17.192 38.4 38.4 38.4s38.4-17.192 38.4-38.4v0-828.928l128 124.928c5.455 3.156 12 5.018 18.98 5.018 21.208 0 38.4-17.192 38.4-38.4 0-7.766-2.305-14.994-6.269-21.036l0.090 0.146z" />
<glyph unicode="&#xe92d;" glyph-name="premium-parallax" d="M597.178-30.022c-11.36 0.014-22.238 2.060-32.295 5.795l0.644-0.209c-33.757 12.619-57.415 44.468-57.716 81.883v301.186h-108.916c-0.109 0-0.239-0.001-0.368-0.001-48.842 0-88.436 39.594-88.436 88.436 0 22.544 8.436 43.118 22.323 58.738l-0.079-0.090 352.349 400.756c16.294 18.557 40.067 30.208 66.561 30.208 48.662 0 88.144-39.303 88.435-87.897v-300.246h108.916c0.063 0 0.138 0 0.212 0 49.099 0 88.902-39.803 88.902-88.902 0-22.518-8.372-43.081-22.173-58.745l0.084 0.098-352.349-400.291c-16.081-18.683-39.686-30.503-66.057-30.72h-0.038zM750.778 866.444c-0.053 0.001-0.115 0.001-0.177 0.001-5.304 0-10.062-2.334-13.304-6.032l-0.017-0.020-352.349-400.756c-3.036-3.033-4.914-7.224-4.914-11.855 0-2.997 0.787-5.809 2.165-8.243l-0.043 0.083c2.809-6.616 9.251-11.171 16.756-11.171v0h143.36c19.28 0 34.909-15.629 34.909-34.909v0-336.058c0.244-10.351 8.692-18.648 19.079-18.648 5.51 0 10.475 2.335 13.958 6.070l0.010 0.011 350.953 401.687c3.048 3.239 4.92 7.614 4.92 12.427 0 2.752-0.613 5.362-1.709 7.699l0.047-0.111c-3.081 6.646-9.695 11.174-17.367 11.174-0.113 0-0.225-0.001-0.337-0.003h-141.947c-19.175 0.259-34.65 15.734-34.909 34.885v336.083c0.006 0.17 0.009 0.369 0.009 0.57 0 7.86-4.995 14.553-11.984 17.078l-0.126 0.040zM360.727 790.575h-325.818c-19.28 0-34.909 15.629-34.909 34.909s15.629 34.909 34.909 34.909v0h325.818c19.28 0 34.909-15.629 34.909-34.909s-15.629-34.909-34.909-34.909v0zM314.182 45.847h-279.273c-19.28 0-34.909 15.629-34.909 34.909s15.629 34.909 34.909 34.909v0h279.273c19.28 0 34.909-15.629 34.909-34.909s-15.629-34.909-34.909-34.909v0zM174.545 418.211h-139.636c-19.28 0-34.909 15.629-34.909 34.909s15.629 34.909 34.909 34.909v0h139.636c19.28 0 34.909-15.629 34.909-34.909s-15.629-34.909-34.909-34.909v0z" />
<glyph unicode="&#xe92e;" glyph-name="premium-particles" horiz-adv-x="902" d="M622.020 399.896c-154.053 0.811-278.623 125.882-278.623 280.048 0 154.669 125.384 280.052 280.052 280.052 154.667 0 280.050-125.381 280.052-280.048v0c-0.27-154.727-125.763-280.054-280.528-280.054-0.335 0-0.67 0.001-1.005 0.002h0.052zM622.020 888.558c-115.212 0-208.61-93.398-208.61-208.61s93.398-208.61 208.61-208.61c115.212 0 208.61 93.398 208.61 208.61v0c-0.27 115.104-93.507 208.34-208.585 208.61h-0.026zM182.415 57.927c-100.745 0-182.415 81.67-182.415 182.415s81.67 182.415 182.415 182.415c100.745 0 182.415-81.67 182.415-182.415v0c-0.27-100.636-81.779-182.145-182.389-182.415h-0.026zM182.415 351.315c-61.289 0-110.973-49.684-110.973-110.973s49.684-110.973 110.973-110.973c61.289 0 110.973 49.684 110.973 110.973v0c-0.269 61.18-49.793 110.704-110.947 110.973h-0.026zM671.077-64c-87.067 0-157.648 70.582-157.648 157.648s70.582 157.648 157.648 157.648c87.067 0 157.648-70.582 157.648-157.648v0c0-87.067-70.582-157.648-157.648-157.648v0zM671.077 179.855c-47.611 0-86.207-38.596-86.207-86.207s38.596-86.207 86.207-86.207c47.611 0 86.207 38.596 86.207 86.207v0c0 47.611-38.596 86.207-86.207 86.207v0z" />
<glyph unicode="&#xe92f;" glyph-name="premium-preview-window" horiz-adv-x="1021" d="M510.575-64c-35.562 1.333-66.568 19.694-85.251 47.122l-0.24 0.374-71.243 94.991c-2.673 2.142-5.851 3.78-9.32 4.709l-0.179 0.041h-23.748c-198.056 0-320.594 53.67-320.594 320.594v237.477c0 209.929 110.664 320.594 320.594 320.594h379.963c209.929 0 320.594-110.664 320.594-320.594v-237.477c0-209.929-110.664-320.594-320.594-320.594h-23.748c-3.854-0.076-7.266-1.906-9.479-4.723l-0.020-0.027-71.243-94.991c-18.923-27.802-49.93-46.162-85.295-47.489l-0.197-0.006zM320.594 888.757c-170.033 0-249.351-79.317-249.351-249.351v-237.477c0-214.679 73.618-249.351 249.351-249.351h23.748c27.147-0.86 51.112-13.774 66.829-33.54l0.14-0.182 70.768-94.991c5.744-9.978 16.349-16.588 28.497-16.588s22.753 6.61 28.413 16.43l0.084 0.159 71.243 94.991c15.417 20.168 39.43 33.089 66.468 33.247h23.774c170.033 0 249.351 79.317 249.351 249.351v237.477c0 170.033-79.317 249.351-249.351 249.351zM748.052 603.785h-474.954c-19.673 0-35.622 15.948-35.622 35.622s15.948 35.622 35.622 35.622v0h474.954c19.673 0 35.622-15.948 35.622-35.622s-15.948-35.622-35.622-35.622v0zM558.071 366.308h-284.972c-19.673 0-35.622 15.948-35.622 35.622s15.948 35.622 35.622 35.622v0h284.972c19.673 0 35.622-15.948 35.622-35.622s-15.948-35.622-35.622-35.622v0z" />
<glyph unicode="&#xe930;" glyph-name="premium-pricing-table" d="M654.884 960h-285.767c-258.62 0-369.116-110.497-369.116-369.116v-285.767c0-258.62 110.497-369.116 369.116-369.116h285.767c258.62 0 369.116 110.497 369.116 369.116v285.767c0 258.62-110.497 369.116-369.116 369.116zM952.558 305.116c0-219.565-78.11-297.674-297.674-297.674h-285.767c-219.565 0-297.674 78.11-297.674 297.674v285.767c0 219.565 78.11 297.674 297.674 297.674h285.767c219.565 0 297.674-78.11 297.674-297.674zM620.115 448.476l-72.394 23.338v162.411h17.622c39.015-1.556 70.054-33.562 70.054-72.816 0-0.857-0.015-1.71-0.044-2.559l0.003 0.123c0-19.728 15.993-35.721 35.721-35.721s35.721 15.993 35.721 35.721v0c0.032 1.135 0.051 2.47 0.051 3.81 0 78.913-63.971 142.884-142.884 142.884-0.018 0-0.036 0-0.053 0h-17.62v28.1c0 19.728-15.993 35.721-35.721 35.721s-35.721-15.993-35.721-35.721v0-28.1h-30.482c-70.422-2.113-126.705-59.706-126.705-130.445 0-0.689 0.005-1.377 0.016-2.064l-0.001 0.104c-0.388-3.585-0.609-7.743-0.609-11.953 0-54.352 36.859-100.095 86.944-113.596l0.823-0.189 71.442-24.767v-160.982h-17.146c-39.015 1.556-70.054 33.562-70.054 72.816 0 0.857 0.015 1.71 0.044 2.559l-0.003-0.123c0 19.728-15.993 35.721-35.721 35.721s-35.721-15.993-35.721-35.721v0c-0.032-1.135-0.051-2.47-0.051-3.81 0-78.913 63.971-142.884 142.884-142.884 0.018 0 0.036 0 0.053 0h17.143v-28.1c0-19.728 15.993-35.721 35.721-35.721s35.721 15.993 35.721 35.721v0 28.1h30.958c71.048 1.33 128.133 59.238 128.133 130.479 0 0.677-0.005 1.354-0.015 2.029l0.001-0.102c0.372 3.513 0.585 7.588 0.585 11.713 0 54.689-37.318 100.662-87.878 113.843l-0.818 0.181zM477.232 498.486l-47.628 16.67c-26.672 9.049-39.055 18.099-39.055 58.106-0.021 0.582-0.032 1.265-0.032 1.952 0 31.791 25.119 57.715 56.592 59.008l0.117 0.004h30.482zM579.632 260.346h-30.958v137.645l47.628-17.146c26.672-9.049 39.055-18.099 39.055-58.106 0.032-0.719 0.050-1.563 0.050-2.411 0-31.702-25.181-57.522-56.633-58.55l-0.094-0.002z" />
<glyph unicode="&#xe931;" glyph-name="premium-progress-bar" d="M965.818 680.727h-279.273c-19.28 0-34.909 15.629-34.909 34.909s15.629 34.909 34.909 34.909v0h279.273c19.28 0 34.909-15.629 34.909-34.909s-15.629-34.909-34.909-34.909v0zM407.273 913.455c-96.779-0.273-177.231-69.839-194.37-161.683l-0.19-1.227h-177.804c-19.28 0-34.909-15.629-34.909-34.909s15.629-34.909 34.909-34.909v0h177.804c17.164-93.218 97.8-162.909 194.714-162.909 109.252 0 197.818 88.566 197.818 197.818s-88.566 197.818-197.818 197.818c-0.054 0-0.108 0-0.162 0h0.008zM407.273 587.636c-70.692 0-128 57.308-128 128s57.308 128 128 128c70.692 0 128-57.308 128-128v0c0-70.692-57.308-128-128-128v0zM965.818 238.545h-177.804c-17.164 93.218-97.8 162.909-194.714 162.909-109.252 0-197.818-88.566-197.818-197.818s88.566-197.818 197.818-197.818c96.913 0 177.55 69.691 194.527 161.692l0.187 1.217h177.804c19.28 0 34.909 15.629 34.909 34.909s-15.629 34.909-34.909 34.909v0zM593.455 75.636c-70.692 0-128 57.308-128 128s57.308 128 128 128c70.692 0 128-57.308 128-128v0c0-70.692-57.308-128-128-128v0zM314.182 168.727h-279.273c-19.28 0-34.909 15.629-34.909 34.909s15.629 34.909 34.909 34.909v0h279.273c19.28 0 34.909-15.629 34.909-34.909s-15.629-34.909-34.909-34.909v0z" />
<glyph unicode="&#xe932;" glyph-name="premium-table" d="M1023.524 610.411c0.113 1.709 0.178 3.705 0.178 5.715s-0.065 4.007-0.192 5.985l0.014-0.27c-8.097 227.661-111.926 330.538-341.492 337.206h-336.729c-238.14-6.668-343.397-118.117-343.397-368.164v-285.767c0-250.047 103.353-361.496 343.397-368.164h338.158c229.567 6.668 333.395 109.544 341.492 337.206 0.113 1.709 0.178 3.705 0.178 5.715s-0.065 4.007-0.192 5.985l0.014-0.27c0 6.192 0 12.86 0 19.527v285.767c-0.953 6.668-0.953 13.336-1.429 19.527zM310.058 9.823c-155.267 12.383-223.851 80.967-236.234 235.758h238.14zM310.058 317.023h-238.14v261.953h238.14zM310.058 650.419h-238.14c14.288 154.791 82.873 223.375 238.14 235.758zM643.453 7.442h-261.953v238.14h261.953zM643.453 317.023h-261.953v261.953h261.953zM643.453 650.419h-261.953v238.14h261.953zM714.895 886.177c155.267-12.86 222.899-80.015 235.282-238.14h-235.282zM714.895 9.823v235.758h235.282c-12.383-154.791-80.967-222.899-235.282-235.758zM953.034 317.023h-238.14v261.953h238.14zM1024 614.698c0.11-0.644 0.173-1.386 0.173-2.143s-0.063-1.499-0.184-2.221l0.011 0.078c0.113 1.709 0.178 3.705 0.178 5.715s-0.065 4.007-0.192 5.985l0.014-0.27c0.111-1.071 0.174-2.314 0.174-3.572s-0.063-2.501-0.187-3.726l0.013 0.154zM1024 281.302c0.111-1.071 0.174-2.314 0.174-3.572s-0.063-2.501-0.187-3.726l0.013 0.154c0.113 1.709 0.178 3.705 0.178 5.715s-0.065 4.007-0.192 5.985l0.014-0.27c0.11-0.644 0.173-1.386 0.173-2.143s-0.063-1.499-0.184-2.221l0.011 0.078z" />
<glyph unicode="&#xe933;" glyph-name="premium-tabs" d="M978.034 314.652c0 6.372 0 12.743 0 19.57v273.067c0 247.125-105.586 352.711-352.711 352.711h-272.612c-247.125 0-352.711-105.586-352.711-352.711v-273.067c0-247.125 105.586-352.711 352.711-352.711h293.092c37.87-28.425 85.664-45.518 137.45-45.518 0.638 0 1.275 0.003 1.911 0.008l-0.098-0.001c86.487 0.234 162.185 46.209 204.202 115l0.598 1.053c11.436 19.133 20.658 41.277 26.496 64.759l0.355 1.687c4.63 16.296 7.292 35.011 7.292 54.348 0 0.734-0.004 1.466-0.011 2.198l0.001-0.112c0 0.137 0 0.299 0 0.461 0 52.445-17.258 100.859-46.406 139.872l0.439-0.614zM681.756 889.458c126.066-9.102 192.057-57.344 217.088-162.020h-217.088zM363.179 889.458h248.491v-162.020h-246.67zM294.912 889.458v-162.020h-215.268c25.031 104.676 91.022 152.917 217.088 162.020zM580.267 52.053s0 0 0-2.276h-227.556c-209.806 0-284.444 74.638-284.444 284.444v273.067c0 18.204 0 35.499 0 51.883h840.135c0-16.384 0-33.678 0-51.883v-227.556l-9.557 5.006h-3.186c-8.316 4.541-18.228 8.992-28.491 12.709l-1.546 0.489h-2.276l-10.012 6.372-17.749 4.551-24.576 3.641c-3.739 0.216-8.113 0.34-12.516 0.34s-8.776-0.123-13.118-0.367l0.603 0.027c-67.199-0.251-127.893-27.889-171.542-72.327l-0.035-0.036c-41.664-42.822-67.357-101.369-67.357-165.916 0-0.23 0-0.46 0.001-0.69v0.036c-0.001-0.288-0.002-0.628-0.002-0.969 0-44.498 12.352-86.111 33.815-121.598l-0.59 1.052zM950.272 135.339c-4.635-18.29-11.345-34.354-20.042-49.107l0.472 0.865c-30.393-49.836-84.39-82.646-146.064-82.83h-0.027c-0.337-0.002-0.735-0.004-1.133-0.004-40.216 0-77.057 14.449-105.615 38.44l0.252-0.206c-0.85 0.987-1.918 1.762-3.131 2.256l-0.055 0.020c-0.627 0.894-1.381 1.649-2.247 2.256l-0.029 0.019-4.551 3.641c-11.342 10.536-21.139 22.506-29.165 35.673l-0.417 0.736c-15.326 25.064-24.449 55.372-24.576 87.801v0.035c-0.003 0.372-0.005 0.812-0.005 1.253 0 45.963 18.415 87.626 48.271 118.011l-0.024-0.025c7.881 7.964 16.514 15.153 25.795 21.46l0.601 0.386c8.492 5.677 18.225 10.867 28.469 15.070l1.113 0.404c19.414 8.114 41.971 12.827 65.629 12.827 48.81 0 92.935-20.062 124.577-52.391l0.030-0.031 4.096-4.551v-2.731c24.068-28.741 38.684-66.11 38.684-106.893 0-0.020 0-0.041 0-0.061v0.003c0.876-5.908 1.377-12.727 1.377-19.663 0-8.003-0.666-15.85-1.946-23.489l0.114 0.826zM895.659 175.844c-0.253-18.749-15.385-33.88-34.109-34.133h-42.349v-45.511c0-18.851-15.282-34.133-34.133-34.133s-34.133 15.282-34.133 34.133v0 45.511h-42.325c-18.851 0-34.133 15.282-34.133 34.133s15.282 34.133 34.133 34.133v0h42.325v40.505c0 18.851 15.282 34.133 34.133 34.133s34.133-15.282 34.133-34.133v0-40.505h42.325c18.749-0.253 33.88-15.385 34.133-34.109v-0.024z" />
<glyph unicode="&#xe934;" glyph-name="premium-team-members" d="M515.413 454.827h-3.901c-1.387 0.116-3.002 0.182-4.632 0.182s-3.245-0.066-4.842-0.196l0.21 0.014c-135.886 3.94-244.541 115.037-244.541 251.512 0 138.961 112.65 251.611 251.611 251.611s251.611-112.65 251.611-251.611c0-136.475-108.655-247.572-244.179-251.504l-0.362-0.008zM507.124 886.857c-97.065-2.953-174.627-82.345-174.627-179.853 0-95.105 73.786-172.976 167.235-179.49l0.565-0.032c2.345 0.4 5.047 0.628 7.802 0.628s5.457-0.228 8.087-0.667l-0.285 0.039c97.228 2.453 175.109 81.853 175.109 179.444 0 99.134-80.364 179.497-179.497 179.497-1.543 0-3.082-0.019-4.616-0.058l0.227 0.005zM515.413-78.629c-2.666-0.053-5.809-0.083-8.959-0.083-94.617 0-182.864 27.276-257.306 74.394l1.975-1.168c-60.721 35.55-101.621 99.216-104.823 172.665l-0.015 0.44c3.158 74.185 44.047 138.163 103.855 173.542l0.983 0.538c75.509 45.709 166.741 72.758 264.29 72.758s188.781-27.049 266.604-74.055l-2.314 1.297c60.721-35.55 101.621-99.216 104.823-172.665l0.015-0.44c-3.158-74.185-44.047-138.163-103.855-173.542l-0.983-0.538c-72.467-45.95-160.714-73.226-255.331-73.226-3.15 0-6.293 0.030-9.429 0.090l0.47-0.007zM291.596 280.747c-40.752-22.839-68.661-64.373-72.141-112.674l-0.026-0.454c3.75-48.401 31.607-89.551 71.457-111.788l0.711-0.364c64.061-38.267 141.297-60.892 223.817-60.892s159.756 22.625 225.843 62.010l-2.026-1.118c40.631 22.97 68.477 64.432 72.139 112.651l0.029 0.477c-3.75 48.401-31.607 89.551-71.457 111.788l-0.711 0.364c-64.085 38.172-141.316 60.736-223.817 60.736s-159.732-22.565-225.858-61.859l2.041 1.123z" />
<glyph unicode="&#xe935;" glyph-name="premium-testimonials" d="M1024 531.825c0 238.14-204.8 428.651-456.275 428.651s-456.275-190.512-456.275-428.651c0-6.192 0-12.86 0-19.051-67.567-49.588-110.939-128.707-110.939-217.957 0-85.038 39.375-160.879 100.887-210.286l0.526-0.409-9.049-73.347c-0.353-2.523-0.555-5.438-0.555-8.4 0-22.946 12.11-43.064 30.287-54.312l0.274-0.158c9.965-6.569 22.188-10.479 35.324-10.479 0.14 0 0.279 0 0.419 0.001h-0.021c0.248-0.004 0.54-0.006 0.833-0.006 11.915 0 22.999 3.557 32.249 9.667l-0.219-0.136 116.212 68.584c82.474 1.715 156.477 36.606 209.465 91.819l0.098 0.103c13.336 0 26.672 0 40.484-2.381l190.512-113.354c12.347-7.705 27.341-12.274 43.402-12.274 45.769 0 82.873 37.103 82.873 82.873 0 3.318-0.195 6.59-0.574 9.806l0.037-0.39-15.717 130.024c100.834 76.024 165.425 195.466 165.745 330.009v0.052zM516.763 243.2c-8.519-29.609-22.61-55.262-41.191-76.957l0.231 0.276c-42.205-49.681-104.728-80.995-174.565-80.995-1.253 0-2.503 0.010-3.752 0.030l0.189-0.002c-6.651-0.126-12.867-1.875-18.303-4.866l0.205 0.103-113.831-67.632 10.002 81.444c0.217 1.47 0.341 3.166 0.341 4.892 0 11.928-5.926 22.472-14.994 28.849l-0.112 0.075c-54.134 36.051-89.364 96.765-89.54 165.718v0.027c0.479 71.889 38.011 134.908 94.435 170.97l0.821 0.491c35.916 23.607 79.945 37.656 127.255 37.656 1.309 0 2.615-0.011 3.918-0.032l-0.196 0.003c2.332 0.089 5.071 0.14 7.822 0.14 117.435 0 213.243-92.597 218.394-208.762l0.016-0.464c0-5.715 0-11.431 0-17.146-1.257-12.523-3.778-23.993-7.469-34.924l0.325 1.108zM799.673 247.487c-9.18-6.452-15.106-16.996-15.106-28.924 0-1.725 0.124-3.422 0.364-5.081l-0.022 0.189 18.575-150.504c0.034-0.353 0.054-0.764 0.054-1.179 0-4.462-2.272-8.393-5.723-10.699l-0.047-0.029c-1.776-1.043-3.912-1.659-6.192-1.659s-4.416 0.616-6.25 1.691l0.058-0.032-199.561 119.070c-5.202 3.003-11.442 4.775-18.095 4.775-0.336 0-0.671-0.005-1.005-0.014l0.049 0.001c3.731 7.128 7.739 16.076 11.269 25.261l0.638 1.887c2.568 6.537 5.337 15.108 7.673 23.856l0.423 1.863 2.858 12.86c1.34 5.222 2.354 11.399 2.835 17.726l0.023 0.373c0.24 0.929 0.378 1.997 0.378 3.096s-0.138 2.166-0.397 3.185l0.019-0.089c0.339 4.348 0.532 9.415 0.532 14.527s-0.193 10.179-0.573 15.194l0.041-0.668c-5.003 156.010-132.673 280.578-289.438 280.578-1.891 0-3.778-0.018-5.661-0.054l0.282 0.004c-3.701 0.233-8.027 0.365-12.383 0.365s-8.682-0.133-12.973-0.394l0.589 0.029c-2.427 0.235-5.246 0.369-8.097 0.369s-5.67-0.134-8.452-0.396l0.356 0.027-6.668-3.81c-7.139-0.686-13.621-1.862-19.905-3.526l0.854 0.192c-16.982-3.575-31.645-8.007-45.761-13.529l1.943 0.669h-4.287c21.479 188.499 180.074 333.581 372.555 333.581 4.15 0 8.285-0.067 12.402-0.201l-0.6 0.015c211.944 0 384.833-160.030 384.833-356.733-0.808-117.801-60.561-221.475-151.208-283.092l-1.202-0.771z" />
<glyph unicode="&#xe936;" glyph-name="premium-twitter-feed" d="M326.284 32.815c-4.33-0.131-9.424-0.205-14.535-0.205-112.435 0-216.458 36.012-301.165 97.131l1.519-1.043c-7.59 6.020-12.415 15.242-12.415 25.591 0 17.994 14.587 32.582 32.582 32.582 1.919 0 3.8-0.166 5.628-0.484l-0.195 0.028c14.933-2.291 32.161-3.599 49.695-3.599 54.556 0 106.153 12.667 152.011 35.219l-2.026-0.9c-61.887 24.512-108.806 75.247-127.611 138.121l-0.389 1.516c-0.866 2.772-1.365 5.959-1.365 9.263 0 7.829 2.802 15.004 7.457 20.577l-0.041-0.051c-45.502 40.83-73.996 99.825-73.996 165.475 0 4.993 0.165 9.947 0.489 14.857l-0.035-0.667c0.596 12.325 7.955 22.8 18.423 27.843l0.195 0.085c1.050 0.191 2.258 0.3 3.491 0.3s2.441-0.109 3.615-0.318l-0.124 0.018c-16.609 30.291-26.379 66.37-26.379 104.731 0 41.363 11.359 80.074 31.127 113.182l-0.559-1.011c5.498 8.901 14.722 15.049 25.441 16.276l0.159 0.015c0.677 0.048 1.466 0.075 2.262 0.075 10.229 0 19.402-4.52 25.631-11.671l0.035-0.041s149.876-176.407 333.265-186.182c0 4.655 0 9.775 0 14.429-0.001 0.282-0.002 0.615-0.002 0.948 0 122.152 98.235 221.36 220.014 222.934l0.149 0.002c56.849-0.055 108.655-21.603 147.739-56.955l-0.19 0.169c36.566 2.343 69.799 14.901 97.361 34.819l-0.546-0.376c5.257 4.034 11.928 6.464 19.167 6.464 5.052 0 9.827-1.184 14.064-3.288l-0.184 0.083c10.535-5.055 17.847-15.321 18.613-27.367l0.005-0.095c0.008-0.438 0.012-0.954 0.012-1.472 0-16.658-4.68-32.223-12.796-45.453l0.216 0.379c1.981 0.428 4.256 0.673 6.589 0.673 6.937 0 13.367-2.168 18.651-5.863l-0.105 0.070c8.794-6.028 14.489-16.021 14.489-27.344 0-2.852-0.361-5.62-1.041-8.26l0.050 0.229c-3.724-13.033-20.945-46.545-96.349-114.967 0-84.713-25.135-473.833-458.938-576.698-33.174-6.258-71.337-9.837-110.336-9.837-3.101 0-6.197 0.023-9.288 0.068l0.467-0.005zM162.444 123.113c50.105-15.683 107.717-24.718 167.44-24.718 35.739 0 70.722 3.235 104.673 9.429l-3.546-0.537c431.476 102.4 408.204 520.378 407.738 524.567-0.046 0.661-0.072 1.433-0.072 2.211 0 10.009 4.327 19.006 11.213 25.225l0.030 0.026 26.065 24.669h-9.309c-0.916-0.093-1.98-0.146-3.057-0.146-13.606 0-25.236 8.461-29.915 20.408l-0.075 0.218c-1.395 3.52-2.203 7.597-2.203 11.864 0 10.43 4.831 19.731 12.378 25.787l0.065 0.050 8.844 6.982c-11.71-1.778-25.221-2.793-38.969-2.793-0.209 0-0.418 0-0.627 0.001h0.032c-1.282-0.184-2.763-0.289-4.269-0.289-7.167 0-13.777 2.382-19.083 6.398l0.079-0.058c-28.355 28.725-67.719 46.523-111.239 46.545h-0.004c-85.039-1.552-153.505-70.344-154.53-155.364l-0.001-0.098c-0.002-0.319-0.003-0.695-0.003-1.072 0-13.827 1.698-27.258 4.898-40.095l-0.24 1.138c0.608-2.371 0.958-5.094 0.958-7.898 0-7.16-2.277-13.787-6.146-19.199l0.068 0.1c-5.689-7.728-14.521-12.858-24.573-13.493l-0.096-0.005c-175.476-9.775-322.56 109.847-387.724 173.615-1.684-9.464-2.647-20.359-2.647-31.479 0-56.115 24.518-106.502 63.427-141.035l0.195-0.17c7.012-6.173 11.412-15.169 11.412-25.193 0-3.126-0.428-6.151-1.228-9.021l0.056 0.236c-3.786-12.137-14.158-21.105-26.83-22.789l-0.166-0.018c-6.227-1.346-13.38-2.117-20.713-2.117s-14.486 0.771-21.383 2.236l0.67-0.119c16.065-53.317 58.655-93.9 112.046-106.838l1.059-0.217c14.564-3.458 25.231-16.354 25.231-31.742 0-13.138-7.777-24.461-18.978-29.615l-0.203-0.084c-11.325-5.127-24.486-8.471-38.326-9.294l-0.307-0.015c26.428-37.899 69.275-62.766 118.004-64.227l0.221-0.005c17.446-0.694 31.326-15.005 31.326-32.558 0-7.179-2.322-13.816-6.256-19.2l0.064 0.092c-44.887-48.19-105.687-81.033-173.992-90.136l-1.484-0.162z" />
<glyph unicode="&#xe937;" glyph-name="premium-unfold" d="M654.884 960h-285.767c-258.62 0-369.116-110.497-369.116-369.116v-285.767c0-258.62 110.497-369.116 369.116-369.116h285.767c258.62 0 369.116 110.497 369.116 369.116v285.767c0 258.62-110.497 369.116-369.116 369.116zM952.558 305.116c0-219.565-78.11-297.674-297.674-297.674h-285.767c-219.565 0-297.674 78.11-297.674 297.674v285.767c0 219.565 78.11 297.674 297.674 297.674h285.767c219.565 0 297.674-78.11 297.674-297.674zM738.233 448c-0.265-19.621-16.1-35.456-35.696-35.721h-154.816v-154.791c0-19.728-15.993-35.721-35.721-35.721s-35.721 15.993-35.721 35.721v0 154.791h-154.791c-19.728 0-35.721 15.993-35.721 35.721s15.993 35.721 35.721 35.721v0h154.791v154.791c0 19.728 15.993 35.721 35.721 35.721s35.721-15.993 35.721-35.721v0-154.791h154.791c19.621-0.265 35.456-16.1 35.721-35.696v-0.025z" />
<glyph unicode="&#xe938;" glyph-name="premium-vertical-scroll" horiz-adv-x="786" d="M392.93 960c-216.9-0.271-392.659-176.030-392.93-392.904v-238.166c0-217.009 175.921-392.93 392.93-392.93s392.93 175.921 392.93 392.93v0 238.14c-0.271 216.9-176.030 392.659-392.904 392.93h-0.026zM392.93 698.047c19.621-0.265 35.456-16.1 35.721-35.696v-95.281c0-19.728-15.993-35.721-35.721-35.721s-35.721 15.993-35.721 35.721v0 95.256c0.265 19.621 16.1 35.456 35.696 35.721h0.025zM714.419 328.93c0-177.553-143.935-321.488-321.488-321.488s-321.488 143.935-321.488 321.488v0 238.14c0.207 164.803 124.386 300.539 284.278 318.967l1.489 0.14v-122.88c-41.958-15.149-71.414-54.616-71.442-100.968v-95.259c0-59.184 47.978-107.163 107.163-107.163s107.163 47.978 107.163 107.163v0 95.256c-0.028 46.355-29.484 85.823-70.696 100.735l-0.746 0.236v122.88c161.38-18.567 285.561-154.303 285.767-319.085v-0.022z" />
<glyph unicode="&#xe939;" glyph-name="premium-video-box-1" d="M829.44 74.24c-0.589-0.036-1.277-0.056-1.969-0.056-9.614 0-18.309 3.939-24.557 10.292l-0.005 0.005c-6.883 6.395-11.175 15.496-11.175 25.6s4.293 19.205 11.154 25.58l0.022 0.020c76.788 77.72 124.219 184.594 124.219 302.545s-47.432 224.826-124.262 302.588l0.042-0.043c-6.552 6.552-10.604 15.603-10.604 25.6 0 19.995 16.209 36.204 36.204 36.204 9.997 0 19.048-4.052 25.6-10.604v0c90.622-90.49 146.681-215.571 146.681-353.745s-56.059-263.255-146.675-353.739l-0.006-0.006c-6.248-6.324-14.92-10.24-24.506-10.24-0.057 0-0.114 0-0.171 0h0.009zM171.287 74.24c-0.048 0-0.105 0-0.163 0-9.587 0-18.259 3.917-24.503 10.237l-0.003 0.003c-90.622 90.49-146.681 215.571-146.681 353.745s56.059 263.255 146.675 353.739l0.006 0.006c6.552 6.552 15.603 10.604 25.6 10.604 19.995 0 36.204-16.209 36.204-36.204 0-9.997-4.052-19.048-10.604-25.6v0c-76.788-77.72-124.219-184.594-124.219-302.545s47.432-224.826 124.262-302.588l-0.042 0.043c6.883-6.395 11.175-15.496 11.175-25.6s-4.293-19.205-11.154-25.58l-0.022-0.020c-6.253-6.357-14.947-10.296-24.562-10.296-0.693 0-1.381 0.020-2.063 0.061l0.094-0.004zM500.829-60.276c-58.55 0.19-114.694 10.231-166.944 28.552l3.569-1.090c-13.684 4.932-23.29 17.804-23.29 32.919 0 4.046 0.688 7.931 1.954 11.544l-0.075-0.245c4.616 13.949 17.538 23.835 32.769 23.835 4.104 0 8.039-0.718 11.689-2.034l-0.24 0.076c42.16-15.044 90.794-23.739 141.459-23.739 0.341 0 0.682 0 1.022 0.001h-0.053c50.854 0.088 99.651 8.774 145.054 24.681l-3.090-0.943c4.49 2.254 9.784 3.574 15.386 3.574 19.28 0 34.909-15.629 34.909-34.909 0-18.142-13.839-33.051-31.536-34.748l-0.141-0.011c-48.383-17.024-104.175-27.046-162.252-27.461l-0.192-0.001zM653.964 841.309c-1.749-0.302-3.763-0.475-5.818-0.475s-4.069 0.173-6.029 0.505l0.211-0.030c-42.389 15.036-91.278 23.725-142.196 23.725s-99.807-8.689-145.265-24.664l3.068 0.939c-3.064-0.958-6.588-1.509-10.24-1.509-19.599 0-35.488 15.888-35.488 35.488 0 15.947 10.519 29.437 24.996 33.911l0.251 0.067c49.136 17.264 105.789 27.238 164.771 27.238s115.635-9.974 168.364-28.326l-3.593 1.089c13.878-4.826 23.661-17.794 23.661-33.047 0-19.253-15.585-34.865-34.828-34.909h-0.004zM432.873 215.738c-1.144-0.041-2.488-0.065-3.838-0.065-19.367 0-37.601 4.847-53.556 13.395l0.608-0.298c-38.124 25.34-62.91 68.109-62.91 116.668 0 4.317 0.196 8.588 0.579 12.805l-0.040-0.543v158.255c-0.344 3.674-0.54 7.946-0.54 12.263 0 48.559 24.786 91.328 62.397 116.347l0.513 0.321c18.135 9.225 39.547 14.629 62.221 14.629 30.041 0 57.866-9.486 80.643-25.627l-0.435 0.292 134.982-79.593c45.404-21.678 76.899-65.931 80.039-117.836l0.019-0.389c-3.16-52.294-34.654-96.547-79.217-117.863l-0.841-0.362-134.982-78.196c-24.541-14.612-53.983-23.515-85.449-24.2l-0.194-0.003zM432.873 588.102c-0.326 0.008-0.709 0.013-1.094 0.013-7.758 0-15.073-1.898-21.505-5.255l0.257 0.122c-16.604-13.927-27.086-34.684-27.086-57.889 0-3.22 0.202-6.393 0.594-9.507l-0.038 0.371v-156.393c-0.4-2.916-0.628-6.286-0.628-9.71 0-23.661 10.898-44.777 27.949-58.602l0.141-0.11c7.839-3.019 16.908-4.767 26.385-4.767 17.289 0 33.218 5.818 45.937 15.604l-0.177-0.131 133.12 78.196c28.858 16.756 46.545 37.702 46.545 57.716s-16.756 40.96-46.545 57.716l-133.585 78.196c-14.123 9.165-31.207 14.944-49.575 15.817l-0.228 0.009z" />
<glyph unicode="&#xe93a;" glyph-name="premium-video-box-2" d="M654.884 960h-285.767c-258.62 0-369.116-110.497-369.116-369.116v-285.767c0-258.62 110.497-369.116 369.116-369.116h285.767c258.62 0 369.116 110.497 369.116 369.116v285.767c0 258.62-110.497 369.116-369.116 369.116zM713.466 886.177c132.406-10.478 200.99-60.011 226.709-169.555h-226.709zM380.071 886.177h260.048v-169.555h-258.143zM308.629 886.177v-169.555h-224.804c25.719 109.544 94.303 159.077 226.709 169.555zM952.558 305.116c0-219.565-78.11-297.674-297.674-297.674h-285.767c-219.565 0-297.674 78.11-297.674 297.674v285.767c0 19.051 0 37.15 0 54.296h879.211c0-17.146 0-35.245 0-54.296zM468.659 156.041c-0.195-0.001-0.427-0.002-0.658-0.002-17.27 0-33.466 4.596-47.432 12.631l0.462-0.245c-31.659 21.204-52.222 56.833-52.222 97.264 0 2.981 0.112 5.935 0.331 8.86l-0.023-0.39v114.307c-0.196 2.535-0.308 5.489-0.308 8.47 0 40.431 20.563 76.060 51.801 96.998l0.421 0.266c15.054 7.506 32.791 11.898 51.555 11.898 24.471 0 47.197-7.472 66.021-20.258l-0.411 0.263 98.59-57.153c36.577-17.763 62.131-53.155 65.697-94.825l0.030-0.431c-1.849-43.861-27.641-81.29-64.574-99.713l-0.676-0.305-101.447-57.153c-19.153-11.908-42.177-19.384-66.86-20.47l-0.295-0.010zM468.659 435.14c-0.139 0.003-0.303 0.005-0.468 0.005-4.188 0-8.128-1.060-11.567-2.926l0.128 0.064c-10.213-9.273-16.6-22.603-16.6-37.424 0-2.254 0.148-4.474 0.434-6.649l-0.028 0.256v-114.307c-0.259-1.92-0.406-4.14-0.406-6.394 0-14.821 6.387-28.151 16.558-37.387l0.042-0.037c4.556-1.595 9.808-2.516 15.275-2.516 11.398 0 21.86 4.004 30.058 10.681l-0.087-0.068 99.542 57.153c18.099 10.478 29.529 24.29 29.529 35.721s-11.431 25.243-30.006 35.721l-99.066 57.153c-9.442 6.217-20.858 10.199-33.148 10.945l-0.192 0.009z" />
</font>
</defs>
</svg>
